Регистрация ·  Логин: Пароль: Запомнить   · Забыли пароль?




Ответить на тему
Статистика раздачи
Размер: 3.51 ГБ | Зарегистрирован: 15 ноя 2020, 16:28 | .torrent скачан: 0 раз(а), DHT: [ 8 ] раз(а)
Сидеров: [ 18  | 0 байт/сек ]   Личеров: [ 0  | 0 байт/сек ]   DHT: [ 18 / 0 ]
Автор Сообщение

Модератор

С нами: 2 года 5 месяцев
Сообщения: 3401
Россия

Сообщение 15 ноя 2020, 16:28 

[Цитировать]


Информация о фильме
Название: Звонок из подземелья
Оригинальное название: The Call
Год выхода: 2020
Жанр: Ужасы
Режиссер: Тимоти Вудворд мл.
В ролях: Лин Шэй, Тобин Белл, Честер Рашинг, Эрин Сандерс, Майк К. Мэннинг, Слоун Морган Сигел, Джудд Лорманд, Рэнди Дж. Гудвин, Бруклин Энн Миллер, Леа Контрерас

О фильме: После покушения на убийство пожилой женщины, подозреваемой в том, что она ведьма, четверо друзей подписывают контракт встретиться через пять лет после ее смерти, чтобы позвонить по телефону, который она положила себе в гроб. К их ужасу кто-то на другом конце берет трубку.



Страна: США
Студия: Single Malt Productions, Appreciated Films, BondIt Media Capital
Продолжительность: 01:37:20
Перевод: Любительский многоголосый | @[email protected]

Файл
Кодек: MPEG-4 AVC
Качество: WEB-DL 1080p
Видео: 4580 Кбит/с, 1919x796, 23.976 кадр/с
Звук:
Аудио #1: AC3, 48 Гц, 192 Кбит/сек, 2 ch (L + R) | MVO | @[email protected]
Аудио #2: AC3, 48 Гц, 384 Кбит/сек, 6 ch (L C R, + L R, LFE) | Английский
Субтитры: Английские


Общее
Уникальный идентификатор : 214995488534715887260677565563706530831 (0xA1BE9FFB434BB9DB4E8D09DB49B3DC0F)
Полное имя : D:ТоррентыThe.Call.2020.1080p.WEB-DL.DD5.1.H.264-FGTThe.Call.2020.RU.ENG.x264.WEB-DL-1080p-MediaBit.mkv
Формат : Matroska
Версия формата : Version 4
Размер файла : 3,51 Гбайт
Продолжительность : 1 ч. 37 м.
Общий поток : 5 157 Кбит/сек
Название фильма : Звонок из подземелья / The Call (2020)
Дата кодирования : UTC 2020-10-31 12:22:05
Программа кодирования : mkvmerge v25.0.0 ('Prog Noir') 64-bit
Библиотека кодирования : libebml v1.3.6 + libmatroska v1.4.9

Видео
Идентификатор : 1
Формат : AVC
Формат/Информация : Advanced Video Codec
Профиль формата : [email protected]
Настройки формата : CABAC / 5 Ref Frames
Параметр CABAC формата : Да
Параметр RefFrames формата : 5 кадров
Идентификатор кодека : V_MPEG4/ISO/AVC
Продолжительность : 1 ч. 37 м.
Битрейт : 4 580 Кбит/сек
Ширина : 1 916 пикселей
Высота : 796 пикселей
Соотношение сторон : 2,40:1
Режим частоты кадров : Постоянный
Частота кадров : 23,976 (24000/1001) кадра/сек
Цветовое пространство : YUV
Субдискретизация насыщенности : 4:2:0
Битовая глубина : 8 бит
Тип развёртки : Прогрессивная
Бит/(Пиксели*Кадры) : 0.125
Размер потока : 3,11 Гбайт (89%)
Заголовок : FGT
Язык : English
Default : Да
Forced : Нет
Цветовой диапазон : Limited
Основные цвета : BT.709
Характеристики трансфера : BT.709
Коэффициенты матрицы : BT.709

Аудио #1
Идентификатор : 2
Формат : AC-3
Формат/Информация : Audio Coding 3
Коммерческое название : Dolby Digital
Идентификатор кодека : A_AC3
Продолжительность : 1 ч. 37 м.
Вид битрейта : Постоянный
Битрейт : 192 Кбит/сек
Каналы : 2 канала
Channel layout : L R
Частота : 48,0 КГц
Частота кадров : 31,250 кадров/сек (1536 SPF)
Метод сжатия : С потерями
Размер потока : 134 Мбайт (4%)
Заголовок : MVO [@[email protected]] MediaBit
Язык : Russian
Service kind : Complete Main
Default : Да
Forced : Нет

Аудио #2
Идентификатор : 3
Формат : AC-3
Формат/Информация : Audio Coding 3
Коммерческое название : Dolby Digital
Идентификатор кодека : A_AC3
Продолжительность : 1 ч. 37 м.
Вид битрейта : Постоянный
Битрейт : 384 Кбит/сек
Каналы : 6 каналов
Channel layout : L R C LFE Ls Rs
Частота : 48,0 КГц
Частота кадров : 31,250 кадров/сек (1536 SPF)
Метод сжатия : С потерями
Размер потока : 267 Мбайт (7%)
Язык : English
Service kind : Complete Main
Default : Нет
Forced : Нет

Текст
Идентификатор : 4
Формат : UTF-8
Идентификатор кодека : S_TEXT/UTF8
Идентификатор кодека/Информация : UTF-8 Plain Text
Продолжительность : 1 ч. 29 м.
Битрейт : 30 бит/сек
Count of elements : 893
Размер потока : 20,0 Кбайт (0%)
Язык : English
Default : Нет
Forced : Нет


Релиз от:


Download
Для скачивания .torrent файлов необходима регистрация
Сайт не распространяет и не хранит электронные версии произведений, а лишь предоставляет доступ к создаваемому пользователями каталогу ссылок на торрент-файлы, которые содержат только списки хеш-сумм

Страница 1 из 1

Ответить на тему

   Похожие торренты   Торрент