Регистрация ·  Логин: Пароль: Запомнить   · Забыли пароль?




Ответить на тему
Статистика раздачи
Размер: 11.91 ГБ | Зарегистрирован: 15 ноя 2020, 16:28 | .torrent скачан: 1 раз(а), DHT: [ 321 ] раз(а)
Сидеров: [ 49  | 0 байт/сек ]   Личеров: [ 7  | 0 байт/сек ]   DHT: [ 49 / 7 ]
Автор Сообщение

Модератор

С нами: 2 года 4 месяца
Сообщения: 3361
Россия

Сообщение 15 ноя 2020, 16:28 

[Цитировать]

Информация о фильме
Название: Тайлер Рейк: Операция по спасению / Эвакуация
Оригинальное название: Extraction
Год выхода: 2020
Жанр: боевик
Режиссер: Сэм Харгрейв
В ролях: Крис Хемсворт, Голшифте Фарахани, Дэвид Харбор, Рудракш Джайсвал, Рандип Худа, Панкадж Трипати, Крис Джай Алекс, Прияншу Пайнюли, Шатаф Фигар, Патрик Ньюэлл и др.

О фильме: Наёмнику Тайлеру Рэйку поручают освободить сына международного преступника. Мальчик — пешка в войне двух наркобаронов, и его держат в заложниках в городе Дакка, столице государства Бангладеш и одном из самых неприступных мест в мире.



Выпущено: США / India Take One Productions, Russo Brothers, T.G.I.M Films, Thematic Entertainment
Продолжительность: 01:57:26
Озвучивание: Дублированное | Пифагор

Файл
Формат: MKV
Качество: WEB-DL 1080p
Видео: MPEG-4 AVC, 12.2 Mb/s, 1920x800
Аудио #1: Russian: 48 kHz, AC3 Dolby Digital, 3/2 (L, C, R, l, r) + LFE ch, ~640 Kbps | DUB | Пифагор
Аудио #2: Russian: 48 kHz, Enhanced AC3 Dolby Digital, 3/2 (L, C, R, l, r) + LFE ch, ~640 Kbps | DUB | Пифагор
Аудио #3: Ukrainian: 48 kHz, AC3 Dolby Digital, 3/2 (L, C, R, l, r) + LFE ch, ~448 Kbps | DVO
Аудио #4: English: 48 kHz, Enhanced AC3 Dolby Digital + Atmos, 3/2 (L, C, R, l, r) + LFE ch, ~768 Kbps | Original
Субтитры: Russian (Forced, Full), English (Forced, Full)
Дополнительно: Нет

Релиз группы: &

Complete name: Extraction.2020.NF.WEB-DL.1080p.ELEKTRI4KA.UNIONGANG.mkv
Format: Matroska
Format version: Version 4 / Version 2
File size: 11.9 GiB
Duration: 1 h 57 min
Overall bit rate mode: Variable
Overall bit rate: 14.5 Mb/s
Movie name: .ELEKTRI4KA.UNIONGANG.
Encoded date: UTC 2020-10-31 17:17:18
Writing application: mkvmerge v8.3.0 ('Over the Horizon') 64bit
Writing library: libebml v1.3.1 + libmatroska v1.4.2

Video
ID: 1
Format: AVC
Format/Info: Advanced Video Codec
Format profile: [email protected]
Format settings, CABAC: Yes
Format settings, Reference frames: 3 frames
Codec ID: V_MPEG4/ISO/AVC
Duration: 1 h 57 min
Bit rate mode: Variable
Bit rate: 12.2 Mb/s
Maximum bit rate: 14.0 Mb/s
Width: 1 920 pixels
Height: 800 pixels
Display aspect ratio: 2.40:1
Frame rate mode: Constant
Frame rate: 23.976 (24000/1001) FPS
Color space: YUV
Chroma subsampling: 4:2:0
Bit depth: 8 bits
Scan type: Progressive
Bits/(Pixel*Frame): 0.331
Stream size: 9.86 GiB (83%)
Title: .ELEKTRI4KA.UNIONGANG.
Writing library: x264 core 142 r2431 ac76440
Encoding settings: cabac=1 / ref=3 / deblock=1:0:0 / analyse=0x3:0x113 / me=hex / subme=7 / psy=1 / psy_rd=1.00:0.00 / mixed_ref=1 / me_range=16 / chroma_me=1 / trellis=1 / 8x8dct=1 / cqm=0 / deadzone=21, 11 / fast_pskip=1 / chroma_qp_offset=-2 / threads=1 / lookahead_threads=1 / sliced_threads=0 / slices=4 / nr=0 / decimate=1 / interlaced=0 / bluray_compat=1 / constrained_intra=0 / bframes=3 / b_pyramid=1 / b_adapt=1 / b_bias=0 / direct=1 / weightb=1 / open_gop=1 / weightp=1 / keyint=240 / keyint_min=1 / scenecut=40 / intra_refresh=0 / rc_lookahead=40 / rc=abr / mbtree=1 / bitrate=12186 / ratetol=1.0 / qcomp=0.60 / qpmin=0 / qpmax=69 / qpstep=4 / vbv_maxrate=14000 / vbv_bufsize=14000 / nal_hrd=vbr / filler=0 / ip_ratio=1.40 / aq=1:1.00
Default: Yes
Forced: No

Audio #1
ID: 2
Format: AC-3
Format/Info: Audio Coding 3
Mode extension: CM (complete main)
Format settings, Endianness: Big
Codec ID: A_AC3
Duration: 1 h 57 min
Bit rate mode: Constant
Bit rate: 640 kb/s
Channel(s): 6 channels
Channel positions: Front: L C R, Side: L R, LFE
Sampling rate: 48.0 kHz
Frame rate: 31.250 FPS (1536 spf)
Bit depth: 16 bits
Compression mode: Lossy
Stream size: 538 MiB (4%)
Title: DUB AC3 (Pifagor)
Language: Russian
Default: Yes
Forced: Yes

Audio #2
ID: 3
Format: E-AC-3
Format/Info: Enhanced Audio Coding 3
Format settings, Endianness: Big
Codec ID: A_EAC3
Duration: 1 h 57 min
Bit rate mode: Constant
Bit rate: 640 kb/s
Channel(s): 6 channels
Channel positions: Front: L C R, Side: L R, LFE
Sampling rate: 48.0 kHz
Frame rate: 187.500 FPS (256 spf)
Compression mode: Lossy
Stream size: 538 MiB (4%)
Title: DUB E-AC3 (Pifagor)
Language: Russian
Default: No
Forced: No

Audio #3
ID: 4
Format: AC-3
Format/Info: Audio Coding 3
Mode extension: CM (complete main)
Format settings, Endianness: Big
Codec ID: A_AC3
Duration: 1 h 57 min
Bit rate mode: Constant
Bit rate: 448 kb/s
Channel(s): 6 channels
Channel positions: Front: L C R, Side: L R, LFE
Sampling rate: 48.0 kHz
Frame rate: 31.250 FPS (1536 spf)
Bit depth: 16 bits
Compression mode: Lossy
Stream size: 376 MiB (3%)
Title: L2
Language: Ukrainian
Default: No
Forced: No

Audio #4
ID: 5
Format: E-AC-3
Format/Info: Enhanced Audio Coding 3
Format settings, Endianness: Big
Codec ID: A_EAC3
Duration: 1 h 57 min
Bit rate mode: Constant
Bit rate: 768 kb/s
Channel(s): 6 channels
Channel positions: Front: L C R, Side: L R, LFE
Sampling rate: 48.0 kHz
Frame rate: 187.500 FPS (256 spf)
Compression mode: Lossy
Stream size: 645 MiB (5%)
Title: Original
Language: English
Default: No
Forced: No

Text #1
ID: 6
Format: UTF-8
Codec ID: S_TEXT/UTF8
Codec ID/Info: UTF-8 Plain Text
Duration: 1 h 40 min
Bit rate: 8 b/s
Count of elements: 177
Stream size: 6.41 KiB (0%)
Title: Forced
Language: Russian
Default: Yes
Forced: Yes

Text #2
ID: 7
Format: UTF-8
Codec ID: S_TEXT/UTF8
Codec ID/Info: UTF-8 Plain Text
Duration: 1 h 55 min
Bit rate: 30 b/s
Count of elements: 675
Stream size: 25.8 KiB (0%)
Title: Full
Language: Russian
Default: No
Forced: No

Text #3
ID: 8
Format: UTF-8
Codec ID: S_TEXT/UTF8
Codec ID/Info: UTF-8 Plain Text
Duration: 1 h 22 min
Bit rate: 6 b/s
Count of elements: 167
Stream size: 3.76 KiB (0%)
Language: English
Default: No
Forced: No

Text #4
ID: 9
Format: UTF-8
Codec ID: S_TEXT/UTF8
Codec ID/Info: UTF-8 Plain Text
Duration: 1 h 39 min
Bit rate: 33 b/s
Count of elements: 925
Stream size: 24.4 KiB (0%)
Language: English
Default: No
Forced: No

Download
Для скачивания .torrent файлов необходима регистрация
Сайт не распространяет и не хранит электронные версии произведений, а лишь предоставляет доступ к создаваемому пользователями каталогу ссылок на торрент-файлы, которые содержат только списки хеш-сумм

Страница 1 из 1

Ответить на тему

   Похожие торренты   Торрент 




tracker_crontracker_cron