Регистрация ·  Логин: Пароль: Запомнить   · Забыли пароль?




Ответить на тему
Статистика раздачи
Размер: 2.16 ГБ | Зарегистрирован: 15 ноя 2020, 16:28 | .torrent скачан: 0 раз(а), DHT: [ 557 ] раз(а)
Сидеров: [ 12  | 0 байт/сек ]   Личеров: [ 0  | 0 байт/сек ]   DHT: [ 12 / 0 ]
Автор Сообщение

Модератор видео

Стаж: 2 года 6 месяцев
Сообщения: 2485
Россия

Сообщение 15 ноя 2020, 16:28 

[Цитировать]


Информация о фильме
Название: Мисс Плохое поведение
Оригинальное название: Misbehaviour
Год выхода: 2020
Жанр: Комедия, драма, история
Режиссер: Филиппа Лоуторп
В ролях: Кира Найтли, Джесси Бакли, Кили Хоуз, Гугу Мбата-Роу, Сьюки Уотерхаус, Грег Киннер, Рис Иванс, Шарлотта Спенсер, Филлис Логан, Лесли Мэнвилл

О фильме:
Англия, 1970-е, эпоха сексуальной революции и поисков новой свободы. Миллионы восторженных зрителей, вспышки фотокамер, шикарные наряды и секси-купальники - на лондонский подиум выходят топ-модели со всего света. И тут в сияющий огнями Альберт-холл врывается группа девушек.



Страна: Великобритания, Франция
Студия: Pathé, BBC Films, British Film Institute
Продолжительность: 01:46:15
Перевод: Дублированный | iTunes
Субтитры: Английские

Файл
Формат: Matroska
Качество: BDRip-AVC
Видео: AVC/H.264, 1024x428, ~2082 kbps, 0.198 b/px, 24.000 fps
Аудио 1: AC3, 6 ch, 384 kbps - Русский (iTunes)
Аудио 2: AC3, 6 ch, 448 kbps - Английский

x264 info: frame I:1237 Avg QP:14.18 size: 90886
x264 info: frame P:33518 Avg QP:17.48 size: 23296
x264 info: frame B:118342 Avg QP:18.72 size: 6464

------------------------------------------------------------------------------

General
Format : Matroska
Format version : Version 4
File size : 2.16 GiB
Duration : 1 h 46 min
Overall bit rate : 2 913 kb/s
Movie name : Misbehaviour 2020.BDRip.AVC.DUB.mikos
Encoded date : UTC 2020-10-31 11:26:17
Writing application : mkvmerge v51.0.0 ('I Wish') 64-bit
Writing library : libebml v1.4.0 + libmatroska v1.6.2

Video
ID : 1
Format : AVC
Format/Info : Advanced Video Codec
Format profile : [email protected]
Format settings : CABAC / 11 Ref Frames
Format settings, CABAC : Yes
Format settings, Reference frames : 11 frames
Codec ID : V_MPEG4/ISO/AVC
Duration : 1 h 46 min
Bit rate : 2 082 kb/s
Width : 1 024 pixels
Height : 428 pixels
Display aspect ratio : 2.40:1
Frame rate mode : Constant
Frame rate : 24.000 FPS
Color space : YUV
Chroma subsampling : 4:2:0
Bit depth : 8 bits
Scan type : Progressive
Bits/(Pixel*Frame) : 0.198
Stream size : 1.54 GiB (71%)
Title : Рип от mikos
Writing library : x264 core 159 r2991 1771b55
Encoding settings : cabac=1 / ref=11 / deblock=1:-2:-1 / analyse=0x3:0x133 / me=umh / subme=11 / psy=1 / psy_rd=1.00:0.08 / mixed_ref=1 / me_range=32 / chroma_me=1 / trellis=2 / 8x8dct=1 / cqm=0 / deadzone=21,11 / fast_pskip=0 / chroma_qp_offset=-3 / threads=13 / lookahead_threads=3 / sliced_threads=0 / nr=0 / decimate=0 / interlaced=0 / bluray_compat=0 / constrained_intra=0 / bframes=12 / b_pyramid=2 / b_adapt=2 / b_bias=0 / direct=3 / weightb=1 / open_gop=0 / weightp=2 / keyint=240 / keyint_min=23 / scenecut=40 / intra_refresh=0 / rc_lookahead=40 / rc=2pass / mbtree=0 / bitrate=2082 / ratetol=1.0 / qcomp=0.60 / qpmin=0 / qpmax=69 / qpstep=4 / cplxblur=20.0 / qblur=0.5 / vbv_maxrate=50000 / vbv_bufsize=65000 / nal_hrd=none / filler=0 / ip_ratio=1.40 / pb_ratio=1.30 / aq=2:1.00
Language : English
Default : Yes
Forced : No

Audio #1
ID : 2
Format : AC-3
Format/Info : Audio Coding 3
Commercial name : Dolby Digital
Codec ID : A_AC3
Duration : 1 h 46 min
Bit rate mode : Constant
Bit rate : 384 kb/s
Channel(s) : 6 channels
Channel layout : L R C LFE Ls Rs
Sampling rate : 48.0 kHz
Frame rate : 31.250 FPS (1536 SPF)
Compression mode : Lossy
Stream size : 292 MiB (13%)
Title : Dub iTunes
Language : Russian
Service kind : Complete Main
Default : Yes
Forced : No

Audio #2
ID : 3
Format : AC-3
Format/Info : Audio Coding 3
Commercial name : Dolby Digital
Codec ID : A_AC3
Duration : 1 h 46 min
Bit rate mode : Constant
Bit rate : 448 kb/s
Channel(s) : 6 channels
Channel layout : L R C LFE Ls Rs
Sampling rate : 48.0 kHz
Frame rate : 31.250 FPS (1536 SPF)
Compression mode : Lossy
Stream size : 341 MiB (15%)
Title : English
Language : English
Service kind : Complete Main
Default : No
Forced : No

Text
ID : 4
Format : UTF-8
Codec ID : S_TEXT/UTF8
Codec ID/Info : UTF-8 Plain Text
Duration : 1 h 38 min
Bit rate : 66 b/s
Count of elements : 1377
Stream size : 48.3 KiB (0%)
Language : English
Default : Yes
Forced : No

Menu
00:00:00.000 : :Chapter 1
00:07:35.708 : :Chapter 2
00:16:33.375 : :Chapter 3
00:24:28.540 : :Chapter 4
00:32:25.250 : :Chapter 5
00:41:29.041 : :Chapter 6
00:49:59.500 : :Chapter 7
00:59:43.166 : :Chapter 8
01:08:28.416 : :Chapter 9
01:15:19.582 : :Chapter 10
01:25:17.375 : :Chapter 11
01:34:20.832 : :Chapter 12

Download
Для скачивания .torrent файлов необходима регистрация
Сайт не распространяет и не хранит электронные версии произведений, а лишь предоставляет доступ к создаваемому пользователями каталогу ссылок на торрент-файлы, которые содержат только списки хеш-сумм

Страница 1 из 1

Ответить на тему

   Похожие торренты   Торрент 




tracker_crontracker_crontracker_cron