Регистрация ·  Логин: Пароль: Запомнить   · Забыли пароль?




Ответить на тему
Статистика раздачи
Размер: 4.18 ГБ | Зарегистрирован: 15 ноя 2020, 16:28 | .torrent скачан: 0 раз(а), DHT: [ 0 ] раз(а)
Сидеров: [ 0  | 0 байт/сек ]   Личеров: [ 0  | 0 байт/сек ]   DHT: [ 0 / 0 ]
Автор Сообщение

Модератор

С нами: 2 года 5 месяцев
Сообщения: 3401
Россия

Сообщение 15 ноя 2020, 16:28 

[Цитировать]


Информация о фильме
Название: Менендес: День Господень
Оригинальное название: Menendez Parte 1: El día del Señor / The Day Of The Lord
Год выхода: 2020
Жанр: мистика, триллер, драма
Режиссер: Сантьяго Альварадо
В ролях: Долорес Эредия, Химена Ромо, Хули Фабрегас, Гектор Илланес, Оскар Гордилло

О фильме:
Когда-то он был священником, служителем католической церкви. Но ввиду событий, которые он до сих пор окончательно не может себе простить, ему пришлось прекратить богослужения и отказаться от посещения церкви вообще. Однако сейчас ему потребуется вспомнить свои религиозные навыки, сейчас ему потребуется вся его вера в Бога и все силы, чтобы помочь дочери товарища.



Страна: Мексика, Испания
Студия: Invico Capital, Magno Entertainment, Minds Eye Entertainment
Продолжительность: 01:33:13
Перевод: СУБТИТРЫ

Файл
Кодек: H.264
Качество: WEBRip 1080p
Видео: AVC, 1920x1080 (16:9), 24 fps ~ 5645 Kbps
Звук: E-AC3 | Atmos, 48 KHz, 6 ch ~ 768 Kb/s (испанский)
Субтитры: русские, английские + multi

Общее
Уникальный идентификатор : 198787222119624383882093284339667858090 (0x958D06BFCD71AB999C89326568EA72AA)
Полное имя : J:wotThe.Day.of.the.Lord.2020.1080p.mkv
Формат : Matroska
Версия формата : Version 4
Размер файла : 4,18 Гбайт
Продолжительность : 1 ч. 33 м.
Режим общего битрейта : Переменный
Общий поток : 6 419 Кбит/сек
Дата кодирования : UTC 2020-10-31 07:14:32
Программа кодирования : mkvmerge v7.7.0 ('Six Voices') 32bit built on Feb 28 2015 23:23:00
Библиотека кодирования : libebml v1.3.1 + libmatroska v1.4.2

Видео
Идентификатор : 1
Формат : AVC
Формат/Информация : Advanced Video Codec
Профиль формата : [email protected]
Настройки формата : CABAC / 4 Ref Frames
Параметр CABAC формата : Да
Параметр RefFrames формата : 4 кадра
Идентификатор кодека : V_MPEG4/ISO/AVC
Продолжительность : 1 ч. 33 м.
Вид битрейта : Переменный
Битрейт : 5 646 Кбит/сек
Максимальный битрейт : 20,0 Мбит/сек
Ширина : 1 920 пикселей
Высота : 1 080 пикселей
Соотношение сторон : 16:9
Режим частоты кадров : Постоянный
Частота кадров : 24,000 кадра/сек
Цветовое пространство : YUV
Субдискретизация насыщенности : 4:2:0
Битовая глубина : 8 бит
Тип развёртки : Прогрессивная
Бит/(Пиксели*Кадры) : 0.113
Размер потока : 3,68 Гбайт (88%)
Библиотека кодирования : x264 core 148 r2722 1b0121b
Настройки программы : cabac=1 / ref=4 / deblock=1:0:0 / analyse=0x3:0x111 / me=umh / subme=10 / psy=1 / psy_rd=1.00:0.00 / mixed_ref=1 / me_range=120 / chroma_me=1 / trellis=2 / 8x8dct=1 / cqm=0 / deadzone=21,11 / fast_pskip=1 / chroma_qp_offset=-2 / threads=8 / lookahead_threads=2 / sliced_threads=0 / nr=0 / decimate=1 / interlaced=0 / bluray_compat=0 / stitchable=1 / constrained_intra=0 / bframes=16 / b_pyramid=2 / b_adapt=2 / b_bias=0 / direct=3 / weightb=1 / open_gop=0 / weightp=2 / keyint=240 / keyint_min=121 / scenecut=0 / intra_refresh=0 / rc_lookahead=240 / rc=crf / mbtree=1 / crf=16.0 / qcomp=0.50 / qpmin=6 / qpmax=51 / qpstep=4 / vbv_maxrate=20000 / vbv_bufsize=25000 / crf_max=0.0 / nal_hrd=vbr / filler=0 / ip_ratio=1.40 / aq=1:0.80
Язык : Spanish
Default : Да
Forced : Нет

Аудио
Идентификатор : 2
Формат : E-AC-3 JOC
Формат/Информация : Enhanced AC-3 with Joint Object Coding
Коммерческое название : Dolby Digital Plus with Dolby Atmos
Идентификатор кодека : A_EAC3
Продолжительность : 1 ч. 33 м.
Вид битрейта : Постоянный
Битрейт : 768 Кбит/сек
Каналы : 6 каналов
Channel layout : L R C LFE Ls Rs
Частота : 48,0 КГц
Частота кадров : 31,250 кадров/сек (1536 SPF)
Метод сжатия : С потерями
Размер потока : 512 Мбайт (12%)
Язык : Spanish
Service kind : Complete Main
Default : Да
Forced : Нет
Complexity index : 16
Number of dynamic objects : 15
Bed channel count : 1 канал
Bed channel configuration : LFE

Текст #1
Идентификатор : 3
Формат : UTF-8
Идентификатор кодека : S_TEXT/UTF8
Идентификатор кодека/Информация : UTF-8 Plain Text
Продолжительность : 1 ч. 32 м.
Битрейт : 60 бит/сек
Count of elements : 924
Размер потока : 40,9 Кбайт (0%)
Заголовок : Russian
Язык : Russian
Default : Нет
Forced : Нет

Текст #2
Идентификатор : 4
Формат : UTF-8
Идентификатор кодека : S_TEXT/UTF8
Идентификатор кодека/Информация : UTF-8 Plain Text
Продолжительность : 1 ч. 28 м.
Битрейт : 41 бит/сек
Count of elements : 919
Размер потока : 26,9 Кбайт (0%)
Заголовок : English
Язык : English
Default : Нет
Forced : Нет

Текст #3
Идентификатор : 5
Формат : UTF-8
Идентификатор кодека : S_TEXT/UTF8
Идентификатор кодека/Информация : UTF-8 Plain Text
Продолжительность : 1 ч. 32 м.
Битрейт : 64 бит/сек
Count of elements : 905
Размер потока : 44,0 Кбайт (0%)
Заголовок : Arabic
Язык : Arabic
Default : Нет
Forced : Нет

Текст #4
Идентификатор : 6
Формат : UTF-8
Идентификатор кодека : S_TEXT/UTF8
Идентификатор кодека/Информация : UTF-8 Plain Text
Продолжительность : 1 ч. 32 м.
Битрейт : 36 бит/сек
Count of elements : 919
Размер потока : 24,7 Кбайт (0%)
Заголовок : Czech
Язык : Czech
Default : Нет
Forced : Нет

Текст #5
Идентификатор : 7
Формат : UTF-8
Идентификатор кодека : S_TEXT/UTF8
Идентификатор кодека/Информация : UTF-8 Plain Text
Продолжительность : 1 ч. 32 м.
Битрейт : 36 бит/сек
Count of elements : 840
Размер потока : 24,5 Кбайт (0%)
Заголовок : Danish
Язык : Danish
Default : Нет
Forced : Нет

Текст #6
Идентификатор : 8
Формат : UTF-8
Идентификатор кодека : S_TEXT/UTF8
Идентификатор кодека/Информация : UTF-8 Plain Text
Продолжительность : 1 ч. 32 м.
Битрейт : 38 бит/сек
Count of elements : 883
Размер потока : 26,2 Кбайт (0%)
Заголовок : German
Язык : German
Default : Нет
Forced : Нет

Текст #7
Идентификатор : 9
Формат : UTF-8
Идентификатор кодека : S_TEXT/UTF8
Идентификатор кодека/Информация : UTF-8 Plain Text
Продолжительность : 1 ч. 32 м.
Битрейт : 67 бит/сек
Count of elements : 922
Размер потока : 45,5 Кбайт (0%)
Заголовок : Greek
Язык : Greek
Default : Нет
Forced : Нет

Текст #8
Идентификатор : 10
Формат : UTF-8
Идентификатор кодека : S_TEXT/UTF8
Идентификатор кодека/Информация : UTF-8 Plain Text
Продолжительность : 1 ч. 28 м.
Битрейт : 47 бит/сек
Count of elements : 1027
Размер потока : 30,6 Кбайт (0%)
Заголовок : Spanish (SDH)
Язык : Spanish
Default : Нет
Forced : Нет

Текст #9
Идентификатор : 11
Формат : UTF-8
Идентификатор кодека : S_TEXT/UTF8
Идентификатор кодека/Информация : UTF-8 Plain Text
Продолжительность : 1 ч. 32 м.
Битрейт : 37 бит/сек
Count of elements : 747
Размер потока : 25,7 Кбайт (0%)
Заголовок : Finnish
Язык : Finnish
Default : Нет
Forced : Нет

Текст #10
Идентификатор : 12
Формат : UTF-8
Идентификатор кодека : S_TEXT/UTF8
Идентификатор кодека/Информация : UTF-8 Plain Text
Продолжительность : 1 ч. 32 м.
Битрейт : 37 бит/сек
Count of elements : 881
Размер потока : 25,5 Кбайт (0%)
Заголовок : French
Язык : French
Default : Нет
Forced : Нет

Текст #11
Идентификатор : 13
Формат : UTF-8
Идентификатор кодека : S_TEXT/UTF8
Идентификатор кодека/Информация : UTF-8 Plain Text
Продолжительность : 1 ч. 32 м.
Битрейт : 60 бит/сек
Count of elements : 922
Размер потока : 41,1 Кбайт (0%)
Заголовок : Hebrew
Язык : Hebrew
Default : Нет
Forced : Нет

Текст #12
Идентификатор : 14
Формат : UTF-8
Идентификатор кодека : S_TEXT/UTF8
Идентификатор кодека/Информация : UTF-8 Plain Text
Продолжительность : 1 ч. 32 м.
Битрейт : 34 бит/сек
Count of elements : 924
Размер потока : 23,7 Кбайт (0%)
Заголовок : Hungarian
Язык : Hungarian
Default : Нет
Forced : Нет

Текст #13
Идентификатор : 15
Формат : UTF-8
Идентификатор кодека : S_TEXT/UTF8
Идентификатор кодека/Информация : UTF-8 Plain Text
Продолжительность : 1 ч. 32 м.
Битрейт : 35 бит/сек
Count of elements : 880
Размер потока : 23,7 Кбайт (0%)
Заголовок : Indonesian
Язык : Indonesian
Default : Нет
Forced : Нет

Текст #14
Идентификатор : 16
Формат : UTF-8
Идентификатор кодека : S_TEXT/UTF8
Идентификатор кодека/Информация : UTF-8 Plain Text
Продолжительность : 1 ч. 32 м.
Битрейт : 35 бит/сек
Count of elements : 911
Размер потока : 23,7 Кбайт (0%)
Заголовок : Italian
Язык : Italian
Default : Нет
Forced : Нет

Текст #15
Идентификатор : 17
Формат : UTF-8
Идентификатор кодека : S_TEXT/UTF8
Идентификатор кодека/Информация : UTF-8 Plain Text
Продолжительность : 1 ч. 32 м.
Битрейт : 37 бит/сек
Count of elements : 925
Размер потока : 25,4 Кбайт (0%)
Заголовок : Japanese
Язык : Japanese
Default : Нет
Forced : Нет

Текст #16
Идентификатор : 18
Формат : UTF-8
Идентификатор кодека : S_TEXT/UTF8
Идентификатор кодека/Информация : UTF-8 Plain Text
Продолжительность : 1 ч. 32 м.
Битрейт : 49 бит/сек
Count of elements : 923
Размер потока : 33,7 Кбайт (0%)
Заголовок : Korean
Язык : Korean
Default : Нет
Forced : Нет

Текст #17
Идентификатор : 19
Формат : UTF-8
Идентификатор кодека : S_TEXT/UTF8
Идентификатор кодека/Информация : UTF-8 Plain Text
Продолжительность : 1 ч. 32 м.
Битрейт : 36 бит/сек
Count of elements : 805
Размер потока : 24,4 Кбайт (0%)
Заголовок : Norwegian
Язык : Norwegian
Default : Нет
Forced : Нет

Текст #18
Идентификатор : 20
Формат : UTF-8
Идентификатор кодека : S_TEXT/UTF8
Идентификатор кодека/Информация : UTF-8 Plain Text
Продолжительность : 1 ч. 32 м.
Битрейт : 34 бит/сек
Count of elements : 856
Размер потока : 23,6 Кбайт (0%)
Заголовок : Dutch
Язык : Dutch
Default : Нет
Forced : Нет

Текст #19
Идентификатор : 21
Формат : UTF-8
Идентификатор кодека : S_TEXT/UTF8
Идентификатор кодека/Информация : UTF-8 Plain Text
Продолжительность : 1 ч. 32 м.
Битрейт : 36 бит/сек
Count of elements : 915
Размер потока : 24,5 Кбайт (0%)
Заголовок : Polish
Язык : Polish
Default : Нет
Forced : Нет

Текст #20
Идентификатор : 22
Формат : UTF-8
Идентификатор кодека : S_TEXT/UTF8
Идентификатор кодека/Информация : UTF-8 Plain Text
Продолжительность : 1 ч. 32 м.
Битрейт : 37 бит/сек
Count of elements : 918
Размер потока : 25,4 Кбайт (0%)
Заголовок : Portuguese
Язык : Portuguese
Default : Нет
Forced : Нет

Текст #21
Идентификатор : 23
Формат : UTF-8
Идентификатор кодека : S_TEXT/UTF8
Идентификатор кодека/Информация : UTF-8 Plain Text
Продолжительность : 1 ч. 30 м.
Битрейт : 39 бит/сек
Count of elements : 902
Размер потока : 26,2 Кбайт (0%)
Заголовок : Brazilian Portuguese
Язык : Portuguese
Default : Нет
Forced : Нет

Текст #22
Идентификатор : 24
Формат : UTF-8
Идентификатор кодека : S_TEXT/UTF8
Идентификатор кодека/Информация : UTF-8 Plain Text
Продолжительность : 1 ч. 32 м.
Битрейт : 41 бит/сек
Count of elements : 923
Размер потока : 28,4 Кбайт (0%)
Заголовок : Romanian
Язык : Romanian
Default : Нет
Forced : Нет

Текст #23
Идентификатор : 25
Формат : UTF-8
Идентификатор кодека : S_TEXT/UTF8
Идентификатор кодека/Информация : UTF-8 Plain Text
Продолжительность : 1 ч. 32 м.
Битрейт : 36 бит/сек
Count of elements : 870
Размер потока : 24,8 Кбайт (0%)
Заголовок : Swedish
Язык : Swedish
Default : Нет
Forced : Нет

Текст #24
Идентификатор : 26
Формат : UTF-8
Идентификатор кодека : S_TEXT/UTF8
Идентификатор кодека/Информация : UTF-8 Plain Text
Продолжительность : 1 ч. 32 м.
Битрейт : 101 бит/сек
Count of elements : 924
Размер потока : 68,5 Кбайт (0%)
Заголовок : Thai
Язык : Thai
Default : Нет
Forced : Нет

Текст #25
Идентификатор : 27
Формат : UTF-8
Идентификатор кодека : S_TEXT/UTF8
Идентификатор кодека/Информация : UTF-8 Plain Text
Продолжительность : 1 ч. 32 м.
Битрейт : 39 бит/сек
Count of elements : 923
Размер потока : 26,6 Кбайт (0%)
Заголовок : Turkish
Язык : Turkish
Default : Нет
Forced : Нет

Текст #26
Идентификатор : 28
Формат : UTF-8
Идентификатор кодека : S_TEXT/UTF8
Идентификатор кодека/Информация : UTF-8 Plain Text
Продолжительность : 1 ч. 32 м.
Битрейт : 51 бит/сек
Count of elements : 907
Размер потока : 34,8 Кбайт (0%)
Заголовок : Vietnamese
Язык : Vietnamese
Default : Нет
Forced : Нет

Текст #27
Идентификатор : 29
Формат : UTF-8
Идентификатор кодека : S_TEXT/UTF8
Идентификатор кодека/Информация : UTF-8 Plain Text
Продолжительность : 1 ч. 32 м.
Битрейт : 39 бит/сек
Count of elements : 924
Размер потока : 26,4 Кбайт (0%)
Заголовок : Simplified Chinese
Язык : Chinese
Default : Нет
Forced : Нет

Текст #28
Идентификатор : 30
Формат : UTF-8
Идентификатор кодека : S_TEXT/UTF8
Идентификатор кодека/Информация : UTF-8 Plain Text
Продолжительность : 1 ч. 28 м.
Битрейт : 42 бит/сек
Count of elements : 923
Размер потока : 27,7 Кбайт (0%)
Заголовок : Traditional Chinese
Язык : Chinese
Default : Нет
Forced : Нет




Download
Для скачивания .torrent файлов необходима регистрация
Сайт не распространяет и не хранит электронные версии произведений, а лишь предоставляет доступ к создаваемому пользователями каталогу ссылок на торрент-файлы, которые содержат только списки хеш-сумм

Страница 1 из 1

Ответить на тему

   Похожие торренты   Торрент 




cron