Регистрация ·  Логин: Пароль: Запомнить   · Забыли пароль?




Ответить на тему
Статистика раздачи
Размер: 8.22 ГБ | Зарегистрирован: 15 ноя 2020, 16:28 | .torrent скачан: 0 раз(а), DHT: [ 0 ] раз(а)
Сидеров: [ 0  | 0 байт/сек ]   Личеров: [ 0  | 0 байт/сек ]   DHT: [ 0 / 0 ]
Автор Сообщение

Модератор

С нами: 2 года 4 месяца
Сообщения: 3361
Россия

Сообщение 15 ноя 2020, 16:28 

[Цитировать]


«Loyal, Brave, True»

Информация о фильме
Название: Мулан
Оригинальное название: Mulan
Год выхода: 2020
Жанр: Боевик, драма, фэнтези

Режиссер: Ники Каро
В ролях: Ифэй Лю, Донни Йен, Гун Ли, Джет Ли, Джейсон Скотт Ли, Йосон Ань, Ци Ма, Розалинд Чао, Чжэн Пэйпэй, Сюзанна Тан

О фильме:
Изданный императором Китая указ о призыве на службу в армии одного мужчины из каждой семьи для защиты страны от северных захватчиков вдохновляет Мулан, старшую дочь почетного воина, занять в войсках место больного отца. Маскируясь под мужчину, девушка подвергается испытаниям на каждом шагу, проявляя свои внутреннюю силу и истинный потенциал. Мулан ждет эпичное путешествие, которое превратит её в доблестного воина, позволит заслужить уважение народа и стать гордостью отца.



Страна: США, Китай, Канада
Студия: China Film Group Corporation (CFGC), Good Fear Film + Management, Jason T. Reed Productions, Walt Disney Pictures
Продолжительность: 01:55:11
Перевод:
• Профессиональный (многоголосый, закадровый) | HDRezka Studio
• Профессиональный (многоголосый, закадровый) | FocusX
• Профессиональный (многоголосый, закадровый) | IdeaFilm
• Авторский (одноголосый, закадровый) | Д.Есарев

Файл
Качество: BDRip 720p
Формат: MKV
Кодек: MPEG-4 AVC
Видео: 1280x536 (2,40:1), 23,976 fps, MPEG-4 AVC ~ 6500 Кbps avg, 0.395 bit/pixel
Аудио: AC3, 48 kHz, 6 ch, ~640.00 kbps avg | русский | HDRezka Studio
Аудио: AC3, 48 kHz, 6 ch, ~640.00 kbps avg | русский | FocusX
Аудио: AC3, 48 kHz, 6 ch, ~448.00 kbps avg | русский | IdeaFilm
Аудио: AC3, 48 kHz, 6 ch, ~448.00 kbps avg | русский | Д.Есарев
Аудио: E-AC3, 48 kHz, 8 ch, ~1536.00 kbps avg | английский | Оригинал
Субтитры: Русские (Forced, Full - "Focs"), английские (Full, SDH)

*** Реклама, любого вида, отсутствует.

Общее
Уникальный идентификатор : 78791953168070538166593590499403127511 (0x3B46C73801360EA9D4EF267EF8105AD7)
Полное имя : Mulan.2020.720p.BluRay.x264 .mkv
Формат : Matroska
Версия формата : Version 4
Размер файла : 8,22 Гбайт
Продолжительность : 1 ч. 55 м.
Общий поток : 10,2 Мбит/сек
Название фильма : Мулан / Mulan (2020)
Дата кодирования : UTC 2020-10-31 04:51:53
Программа кодирования : mkvmerge v47.0.0 ('Black Flag') 64-bit
Библиотека кодирования : libebml v1.3.10 + libmatroska v1.5.2
Обложка : Yes
Attachments : cover.jpg

Видео
Идентификатор : 1
Формат : AVC
Формат/Информация : Advanced Video Codec
Профиль формата : [email protected]
Настройки формата : CABAC / 12 Ref Frames
Параметр CABAC формата : Да
Параметр RefFrames формата : 12 кадров
Идентификатор кодека : V_MPEG4/ISO/AVC
Продолжительность : 1 ч. 55 м.
Битрейт : 6 500 Кбит/сек
Ширина : 1 280 пикселей
Высота : 536 пикселей
Соотношение сторон : 2,40:1
Режим частоты кадров : Постоянный
Частота кадров : 23,976 (24000/1001) кадра/сек
Цветовое пространство : YUV
Субдискретизация насыщенности : 4:2:0
Битовая глубина : 8 бит
Тип развёртки : Прогрессивная
Бит/(Пиксели*Кадры) : 0.395
Размер потока : 5,23 Гбайт (64%)
Заголовок : iFT
Библиотека кодирования : x264 core 161 r3018+53 ~ Encoded by Mocunaman in Portugal
Настройки программы : cabac=1 / ref=12 / deblock=1:-3:-3 / analyse=0x3:0x133 / me=umh / subme=11 / psy=1 / fade_compensate=0.00 / psy_rd=1.00:0.00 / mixed_ref=1 / me_range=32 / chroma_me=1 / trellis=2 / 8x8dct=1 / cqm=0 / deadzone=21,11 / fast_pskip=0 / chroma_qp_offset=-2 / threads=17 / lookahead_threads=4 / sliced_threads=0 / nr=0 / decimate=0 / interlaced=0 / bluray_compat=0 / constrained_intra=0 / fgo=0 / bframes=10 / b_pyramid=2 / b_adapt=2 / b_bias=0 / direct=3 / weightb=1 / open_gop=0 / weightp=2 / keyint=250 / keyint_min=23 / scenecut=40 / intra_refresh=0 / rc=2pass / mbtree=0 / bitrate=6500 / ratetol=1.0 / qcomp=0.65 / qpmin=0:0:0 / qpmax=69:69:69 / qpstep=4 / cplxblur=20.0 / qblur=0.5 / ip_ratio=1.30 / pb_ratio=1.20 / aq=3:0.85 / aq-sensitivity=10.00 / aq-factor=1.00:1.00:1.00 / aq2=0 / aq3=0 / zones=4940,9188,b=1.3/17492,19353,b=1.3/31163,38519,b=1.3/39407,40367,b=1.3/44351,47926,b=1.3/50470,50774,b=1.3/54806,56767,b=1.3/59983,63045,b=1.3/63358,65806,b=1.3/68086,68661,b=1.3/76173,79101,b=1.3/79562,82452,b=1.3/106188,114138,b=1.3/125922,126113,b=1.3/136673,141857,b=1.3
Язык : English
Default : Да
Forced : Нет
Цветовой диапазон : Limited
Коэффициенты матрицы : BT.709

Аудио #1
Идентификатор : 2
Формат : AC-3
Формат/Информация : Audio Coding 3
Коммерческое название : Dolby Digital
Идентификатор кодека : A_AC3
Продолжительность : 1 ч. 55 м.
Вид битрейта : Постоянный
Битрейт : 640 Кбит/сек
Каналы : 6 каналов
Channel layout : L R C LFE Ls Rs
Частота : 48,0 КГц
Частота кадров : 31,250 кадров/сек (1536 SPF)
Метод сжатия : С потерями
Размер потока : 527 Мбайт (6%)
Заголовок : MVO | HDRezka Studio
Язык : Russian
Service kind : Complete Main
Default : Да
Forced : Да

Аудио #2
Идентификатор : 3
Формат : AC-3
Формат/Информация : Audio Coding 3
Коммерческое название : Dolby Digital
Идентификатор кодека : A_AC3
Продолжительность : 1 ч. 55 м.
Вид битрейта : Постоянный
Битрейт : 640 Кбит/сек
Каналы : 6 каналов
Channel layout : L R C LFE Ls Rs
Частота : 48,0 КГц
Частота кадров : 31,250 кадров/сек (1536 SPF)
Метод сжатия : С потерями
Размер потока : 527 Мбайт (6%)
Заголовок : MVO | FocusX
Язык : Russian
Service kind : Complete Main
Default : Нет
Forced : Нет

Аудио #3
Идентификатор : 4
Формат : AC-3
Формат/Информация : Audio Coding 3
Коммерческое название : Dolby Digital
Идентификатор кодека : A_AC3
Продолжительность : 1 ч. 55 м.
Вид битрейта : Постоянный
Битрейт : 448 Кбит/сек
Каналы : 6 каналов
Channel layout : L R C LFE Ls Rs
Частота : 48,0 КГц
Частота кадров : 31,250 кадров/сек (1536 SPF)
Метод сжатия : С потерями
Размер потока : 369 Мбайт (4%)
Заголовок : MVO | IdeaFilm
Язык : Russian
Service kind : Complete Main
Default : Нет
Forced : Нет

Аудио #4
Идентификатор : 5
Формат : AC-3
Формат/Информация : Audio Coding 3
Коммерческое название : Dolby Digital
Идентификатор кодека : A_AC3
Продолжительность : 1 ч. 55 м.
Вид битрейта : Постоянный
Битрейт : 448 Кбит/сек
Каналы : 6 каналов
Channel layout : L R C LFE Ls Rs
Частота : 48,0 КГц
Частота кадров : 31,250 кадров/сек (1536 SPF)
Метод сжатия : С потерями
Размер потока : 369 Мбайт (4%)
Заголовок : AVO | Д.Есарев
Язык : Russian
Service kind : Complete Main
Default : Нет
Forced : Нет

Аудио #5
Идентификатор : 6
Формат : E-AC-3
Формат/Информация : Enhanced AC-3
Коммерческое название : Dolby Digital Plus
Профиль формата : Blu-ray Disc
Идентификатор кодека : A_EAC3
Продолжительность : 1 ч. 55 м.
Вид битрейта : Постоянный
Битрейт : 1 536 Кбит/сек
Каналы : 8 каналов
Channel layout : L R C LFE Ls Rs Lb Rb
Частота : 48,0 КГц
Частота кадров : 31,250 кадров/сек (1536 SPF)
Метод сжатия : С потерями
Размер потока : 1,24 Гбайт (15%)
Заголовок : E-AC3 DD+7.1 1536kbs
Язык : English
Service kind : Complete Main
Default : Нет
Forced : Нет

Текст #1
Идентификатор : 7
Формат : UTF-8
Идентификатор кодека : S_TEXT/UTF8
Идентификатор кодека/Информация : UTF-8 Plain Text
Продолжительность : 1 ч. 37 м.
Битрейт : 0 бит/сек
Count of elements : 9
Размер потока : 420 байт (0%)
Заголовок : Forced
Язык : Russian
Default : Да
Forced : Да

Текст #2
Идентификатор : 8
Формат : UTF-8
Идентификатор кодека : S_TEXT/UTF8
Идентификатор кодека/Информация : UTF-8 Plain Text
Продолжительность : 1 ч. 44 м.
Битрейт : 51 бит/сек
Count of elements : 850
Размер потока : 39,0 Кбайт (0%)
Заголовок : Full
Язык : Russian
Default : Нет
Forced : Нет

Текст #3
Идентификатор : 9
Формат : UTF-8
Идентификатор кодека : S_TEXT/UTF8
Идентификатор кодека/Информация : UTF-8 Plain Text
Продолжительность : 1 ч. 50 м.
Битрейт : 30 бит/сек
Count of elements : 923
Размер потока : 24,6 Кбайт (0%)
Заголовок : Full
Язык : English
Default : Нет
Forced : Нет

Текст #4
Идентификатор : 10
Формат : UTF-8
Идентификатор кодека : S_TEXT/UTF8
Идентификатор кодека/Информация : UTF-8 Plain Text
Продолжительность : 1 ч. 50 м.
Битрейт : 36 бит/сек
Count of elements : 1150
Размер потока : 29,6 Кбайт (0%)
Заголовок : SDH
Язык : English
Default : Нет
Forced : Нет

Меню #1
00:00:00.000 : en:Chapter 01
00:06:29.760 : en:Chapter 02
00:11:46.560 : en:Chapter 03
00:18:00.960 : en:Chapter 04
00:25:35.520 : en:Chapter 05
00:32:42.720 : en:Chapter 06
00:38:37.920 : en:Chapter 07
00:46:12.960 : en:Chapter 08
00:53:09.600 : en:Chapter 09
00:58:12.000 : en:Chapter 10
01:04:20.160 : en:Chapter 11
01:10:36.480 : en:Chapter 12
01:17:02.400 : en:Chapter 13
01:21:31.200 : en:Chapter 14

Меню #2
00:00:00.000 : en:Chapter 01
00:04:44.117 : en:Chapter 02
00:06:26.469 : en:Chapter 03
00:09:29.151 : en:Chapter 04
00:13:27.223 : en:Chapter 05
00:20:51.583 : en:Chapter 06
00:26:33.675 : en:Chapter 07
00:29:03.992 : en:Chapter 08
00:36:48.831 : en:Chapter 09
00:41:41.707 : en:Chapter 10
00:50:45.667 : en:Chapter 11
00:57:19.060 : en:Chapter 12
01:01:13.336 : en:Chapter 13
01:11:22.820 : en:Chapter 14
01:16:34.923 : en:Chapter 15
01:22:11.551 : en:Chapter 16
01:29:59.060 : en:Chapter 17
01:34:59.819 : en:Chapter 18
01:38:52.384 : en:Chapter 19
01:44:40.399 : en:Chapter 20

Download
Для скачивания .torrent файлов необходима регистрация
Сайт не распространяет и не хранит электронные версии произведений, а лишь предоставляет доступ к создаваемому пользователями каталогу ссылок на торрент-файлы, которые содержат только списки хеш-сумм

Страница 1 из 1

Ответить на тему

   Похожие торренты   Торрент 




tracker_crontracker_cron