Регистрация ·  Логин: Пароль: Запомнить   · Забыли пароль?




Ответить на тему
Статистика раздачи
Размер: 779.53 МБ | Зарегистрирован: 15 ноя 2020, 16:28 | .torrent скачан: 0 раз(а), DHT: [ 0 ] раз(а)
Сидеров: [ 0  | 0 байт/сек ]   Личеров: [ 0  | 0 байт/сек ]   DHT: [ 0 / 0 ]
Автор Сообщение

Модератор

С нами: 2 года 4 месяца
Сообщения: 3361
Россия

Сообщение 15 ноя 2020, 16:28 

[Цитировать]


Информация о фильме
Название: Его дом
Оригинальное название: His House
Год выхода: 2020
Жанр: ужасы, триллер

Режиссер: Реми Уикс

В ролях: Bradley Banton, Mevis Birungi, Хавьер Ботет, Вивьен Бридсон, Yvonne Campbell, Gamba Cole, Рене Коста, Сопе Дирису, Энди Гэтергуд, Marie Hamm
О фильме:
Молодая пара беженцев покидает охваченный войной Судан и селится в небольшом городе в Великобритании. Попытки адаптироваться к новой жизни сходят на нет, когда героев настигает зловещее существо.

Страна: Великобритания
Продолжительность: 01:33:26
Перевод: Субтитры
Файл
Кодек: x.264
Качество: WEB-DLRip-AVC
Видео: AVC, 720x302 (2.40:1), 24.000 fps, 1 100 kb/s
Аудио: AAC, 48.0 kHz, 2 ch, 64.0 kb/s (English)
Субтитры: Русские (Netflix)
Сэмпл | Трейлер

General
Unique ID : 152641966324021808933761195062036793503 (0x72D5C5FBAA52FB605D34E8334AF0089F)
Complete name : His.House.(2020).WEB-DLRip-AVC.mkv
Format : Matroska
Format version : Version 4
File size : 780 MiB
Duration : 1 h 33 min
Overall bit rate : 1 166 kb/s
Encoded date : UTC 2020-10-30 15:23:36
Writing application : mkvmerge v41.0.0 ('Smarra') 64-bit
Writing library : libebml v1.3.9 + libmatroska v1.5.2

Video
ID : 1
Format : AVC
Format/Info : Advanced Video Codec
Format profile : [email protected]
Format settings : CABAC / 5 Ref Frames
Format settings, CABAC : Yes
Format settings, ReFrames : 5 frames
Codec ID : V_MPEG4/ISO/AVC
Duration : 1 h 33 min
Bit rate : 1 100 kb/s
Width : 720 pixels
Height : 302 pixels
Display aspect ratio : 2.40:1
Original display aspect ratio : 2.40:1
Frame rate mode : Constant
Frame rate : 24.000 FPS
Color space : YUV
Chroma subsampling : 4:2:0
Bit depth : 8 bits
Scan type : Progressive
Bits/(Pixel*Frame) : 0.211
Stream size : 735 MiB (94%)
Writing library : x264 core 152 r2851M ba24899
Encoding settings : cabac=1 / ref=5 / deblock=1:-1:-1 / analyse=0x3:0x113 / me=umh / subme=9 / psy=1 / psy_rd=1.00:0.15 / mixed_ref=1 / me_range=16 / chroma_me=1 / trellis=2 / 8x8dct=1 / cqm=0 / deadzone=21,11 / fast_pskip=1 / chroma_qp_offset=-3 / threads=16 / lookahead_threads=1 / sliced_threads=0 / nr=0 / decimate=1 / interlaced=0 / bluray_compat=0 / constrained_intra=0 / bframes=3 / b_pyramid=2 / b_adapt=2 / b_bias=0 / direct=3 / weightb=1 / open_gop=0 / weightp=2 / keyint=250 / keyint_min=24 / scenecut=40 / intra_refresh=0 / rc_lookahead=50 / rc=2pass / mbtree=1 / bitrate=1100 / ratetol=1.0 / qcomp=0.60 / qpmin=0 / qpmax=69 / qpstep=4 / cplxblur=20.0 / qblur=0.5 / ip_ratio=1.40 / aq=1:1.00
Language : English
Default : Yes
Forced : No

Audio
ID : 2
Format : AAC LC
Format/Info : Advanced Audio Codec Low Complexity
Codec ID : A_AAC-2
Duration : 1 h 33 min
Bit rate : 64.0 kb/s
Channel(s) : 2 channels
Channel layout : L R
Sampling rate : 48.0 kHz
Frame rate : 46.875 FPS (1024 SPF)
Compression mode : Lossy
Stream size : 42.8 MiB (5%)
Language : English
Default : Yes
Forced : No

Text
ID : 3
Format : UTF-8
Codec ID : S_TEXT/UTF8
Codec ID/Info : UTF-8 Plain Text
Duration : 1 h 24 min
Bit rate : 32 b/s
Count of elements : 554
Stream size : 20.3 KiB (0%)
Language : Russian
Default : Yes
Forced : No

Download
Для скачивания .torrent файлов необходима регистрация
Сайт не распространяет и не хранит электронные версии произведений, а лишь предоставляет доступ к создаваемому пользователями каталогу ссылок на торрент-файлы, которые содержат только списки хеш-сумм

Страница 1 из 1

Ответить на тему

   Похожие торренты   Торрент 




tracker_crontracker_cron