Регистрация ·  Логин: Пароль: Запомнить   · Забыли пароль?




Ответить на тему
Статистика раздачи
Размер: 4.33 ГБ | Зарегистрирован: 15 ноя 2020, 16:27 | .torrent скачан: 0 раз(а), DHT: [ 99 ] раз(а)
Сидеров: [ 16  | 0 байт/сек ]   Личеров: [ 3  | 0 байт/сек ]   DHT: [ 16 / 3 ]
Автор Сообщение

Модератор

С нами: 2 года 4 месяца
Сообщения: 3361
Россия

Сообщение 15 ноя 2020, 16:27 

[Цитировать]

Информация о фильме
Название: Мои волосы хотят убивать
Оригинальное название: Bad Hair
Год выхода: 2020
Жанр: ужасы, комедия
Режиссер: Джастин Симиен
В ролях: Эль Лоррэйн, Ванесса Уильямс, Джей Фэро, Лина Уэйте, Блэр Андервуд, Лаверн Кокс, Мишель Херд, Джудит Скотт, Робин Тиди, Эшли Блейн Физерсон

О фильме: Юность и амбиции – взрывное сочетание, обязательное для успешной карьеры на телевидении. Живой пример – Анна. Неудачная химия могла бы поставить крест на её попытках стать звездой музыкального телешоу, но, решившись на искусственное наращивание, девушка вновь обретает уверенность в себе и все шансы стать популярной. Впрочем, новая причёска всё же внесёт коррективы в её планы. Выяснится, что волосы – живые, и они хотят убивать…



Выпущено: США / Culture Machine, Sight Unseen Pictures
Продолжительность: 01:42:30
Озвучивание: Дублированное | iTunes

Файл
Формат: MKV
Качество: WEB-DL 1080p
Видео: MPEG-4 AVC, 5276 Kb/s, 1920x1038
Аудио #1: Russian: 48 kHz, AC3 Dolby Digital, 3/2 (L, C, R, l, r) + LFE ch, ~384 Kbps | iTunes
Аудио #2: English: 48 kHz, AC3 Dolby Digital, 3/2 (L, C, R, l, r) + LFE ch, ~384 Kbps | Original
Субтитры: Russian (Full)
Дополнительно: Сохранены оригинальные чаптеры.

Релиз от:

Video
ID: 1
Format: AVC
Format/Info: Advanced Video Codec
Format profile: [email protected]
Format settings: CABAC / 4 Ref Frames
Format settings, CABAC: Yes
Format settings, Reference: 4 frames
Codec ID: V_MPEG4/ISO/AVC
Duration: 1 h 42 min
Bit rate: 5 276 kb/s
Width: 1 920 pixels
Height: 1 038 pixels
Display aspect ratio: 1.85:1
Frame rate mode: Constant
Frame rate: 24.000 FPS
Color space: YUV
Chroma subsampling: 4:2:0
Bit depth: 8 bits
Scan type: Progressive
Bits/(Pixel*Frame): 0.110
Stream size: 3.78 GiB (87%)
Title: BAD_HAIR_2020_WEB-DL_1080p-BLUEBIRD
Language: English
Default: Yes
Forced: No
Color range: Limited
Color primaries: BT.709
Transfer characteristics: BT.709
Matrix coefficients: BT.709

Audio #1
ID: 2
Format: AC-3
Format/Info: Audio Coding 3
Commercial name: Dolby Digital
Codec ID: A_AC3
Duration: 1 h 42 min
Bit rate mode: Constant
Bit rate: 384 kb/s
Channel(s): 6 channels
Channel layout: L R C LFE Ls Rs
Sampling rate: 48.0 kHz
Frame rate: 31.250 FPS (1536 SPF)
Compression mode: Lossy
Delay relative to video: -42 ms
Stream size: 282 MiB (6%)
Title: [DUB] DD 5.1 @ 384 kbps (iTunes)
Language: Russian
Service kind: Complete Main
Default: Yes
Forced: No

Audio #2
ID: 3
Format: AC-3
Format/Info: Audio Coding 3
Commercial name: Dolby Digital
Codec ID: A_AC3
Duration: 1 h 42 min
Bit rate mode: Constant
Bit rate: 384 kb/s
Channel(s): 6 channels
Channel layout: L R C LFE Ls Rs
Sampling rate: 48.0 kHz
Frame rate: 31.250 FPS (1536 SPF)
Compression mode: Lossy
Delay relative to video: -42 ms
Stream size: 282 MiB (6%)
Title: [ORIGINAL] DD 5.1 @ 384 kbps (iTunes)
Language: English
Service kind: Complete Main
Default: No
Forced: No

Text
ID: 4
Format: UTF-8
Codec ID: S_TEXT/UTF8
Codec ID/Info: UTF-8 Plain Text
Duration: 1 h 36 min
Bit rate: 87 b/s
Count of elements: 1404
Stream size: 61.8 KiB (0%)
Title: Full-length
Language: Russian
Default: Yes
Forced: No

Menu
00:00:00.000: en:Глава 1
00:02:32.666: en:Глава 2
00:08:26.041: en:Глава 3
00:14:36.291: en:Глава 4
00:19:34.749: en:Глава 5
00:24:22.665: en:Глава 6
00:35:16.790: en:Глава 7
00:42:38.040: en:Глава 8
00:49:04.290: en:Глава 9
00:57:47.040: en:Глава 10
01:03:27.831: en:Глава 11
01:10:17.122: en:Глава 12
01:19:20.497: en:Глава 13
01:33:17.538: en:Глава 14

Download
Для скачивания .torrent файлов необходима регистрация
Сайт не распространяет и не хранит электронные версии произведений, а лишь предоставляет доступ к создаваемому пользователями каталогу ссылок на торрент-файлы, которые содержат только списки хеш-сумм

Страница 1 из 1

Ответить на тему

   Похожие торренты   Торрент 




tracker_crontracker_cron