Регистрация ·  Логин: Пароль: Запомнить   · Забыли пароль?




Ответить на тему
Статистика раздачи
Размер: 1.44 ГБ | Зарегистрирован: 15 ноя 2020, 16:27 | .torrent скачан: 0 раз(а), DHT: [ 0 ] раз(а)
Сидеров: [ 0  | 0 байт/сек ]   Личеров: [ 0  | 0 байт/сек ]   DHT: [ 0 / 0 ]
Автор Сообщение

Модератор

С нами: 2 года 4 месяца
Сообщения: 3361
Россия

Сообщение 15 ноя 2020, 16:27 

[Цитировать]

В одиночку / Alone

Информация о фильме:
Название: В одиночку
Оригинальное название: Alone
Год выхода: 2020
Жанр: Ужасы, триллер
Режиссер: Джонни Мартин
В ролях: Тайлер Пози, Саммер Спиро, Дональд Сазерленд, Роберт Ричард, Джон Пози, Эрик Этебари, Джон Писи, Брук Суоллоу, Маргарита Рейес, Джош Харп
Описание: Эйден забаррикадировался в квартире, спасаясь от жертв жуткого вируса, превращающего людей в агрессивных плотоядных существ. Через 42 дня полного одиночества на грани отчаяния парень обнаруживает, что в доме напротив скрывается девушка.

Страна: США
Студия: ICM Partners, JAR Films, Martini Films
Продолжительность: 01:32:19
Перевод: Любительский (многоголосый, закадровый) - @[email protected]

Информация о файле:
Кодек: AVC
Формат: MKV
Качество: HDRip-AVC
Видео: MPEG-4 AVC, 1024x426 (2.40:1), 23.976 fps, 2046 kb/s, 0.196
Аудио RU: AC3, 2 ch, 48 kHz, 192 kbps
Субтитры: Английские
Навигация по главам: Есть


x264 info: frame I:984 Avg QP:13.17 size: 66913
x264 info: frame P:31201 Avg QP:16.20 size: 22432
x264 info: frame B:100631 Avg QP:18.51 size: 6438
x264 info: consecutive B-frames: 2.5% 3.3% 12.2% 23.0% 21.8% 30.1% 4.0% 1.0% 0.9% 0.2% 0.2% 0.7%
====================
General
Unique ID : 208857592946830672556691964006752281598 (0x9D20825D595E4EE5B326C9E0530363FE)
Complete name : D:uTorrentРипы_от_wolf1245_MediaBitВ одиночку - Alone (2020) from wolf1245 & MediaBit.mkv
Format : Matroska
Format version : Version 4
File size : 1.44 GiB
Duration : 1 h 32 min
Overall bit rate : 2 235 kb/s
Movie name : В одиночку / Alone (2020) from wolf1245 & MediaBit
Encoded date : UTC 2020-10-30 02:31:44
Writing application : mkvmerge v51.0.0 ('I Wish') 64-bit
Writing library : libebml v1.4.0 + libmatroska v1.6.2
Video
ID : 1
Format : AVC
Format/Info : Advanced Video Codec
Format profile : [email protected]
Format settings : CABAC / 11 Ref Frames
Format settings, CABAC : Yes
Format settings, Reference frames : 11 frames
Codec ID : V_MPEG4/ISO/AVC
Duration : 1 h 32 min
Bit rate : 2 046 kb/s
Width : 1 024 pixels
Height : 426 pixels
Display aspect ratio : 2.40:1
Frame rate mode : Constant
Frame rate : 23.976 (24000/1001) FPS
Color space : YUV
Chroma subsampling : 4:2:0
Bit depth : 8 bits
Scan type : Progressive
Bits/(Pixel*Frame) : 0.196
Stream size : 1.32 GiB (91%)
Title : wolf1245 & MediaBit
Writing library : x264 core 157 r2958 57baac4
Encoding settings : cabac=1 / ref=11 / deblock=1:-3:-3 / analyse=0x3:0x133 / me=umh / subme=11 / psy=1 / psy_rd=1.03:0.03 / mixed_ref=1 / me_range=48 / chroma_me=1 / trellis=2 / 8x8dct=1 / cqm=0 / deadzone=21,11 / fast_pskip=0 / chroma_qp_offset=-3 / threads=10 / lookahead_threads=2 / sliced_threads=0 / nr=0 / decimate=0 / interlaced=0 / bluray_compat=0 / constrained_intra=0 / bframes=11 / b_pyramid=2 / b_adapt=2 / b_bias=0 / direct=3 / weightb=1 / open_gop=0 / weightp=2 / keyint=240 / keyint_min=24 / scenecut=40 / intra_refresh=0 / rc_lookahead=60 / rc=2pass / mbtree=0 / bitrate=2046 / ratetol=1.0 / qcomp=0.60 / qpmin=0 / qpmax=69 / qpstep=4 / cplxblur=20.0 / qblur=0.5 / vbv_maxrate=50000 / vbv_bufsize=62500 / nal_hrd=none / filler=0 / ip_ratio=1.40 / pb_ratio=1.30 / aq=2:0.80
Language : English
Default : Yes
Forced : No
Color range : Limited
Color primaries : BT.709
Matrix coefficients : BT.709
Audio
ID : 2
Format : AC-3
Format/Info : Audio Coding 3
Commercial name : Dolby Digital
Codec ID : A_AC3
Duration : 1 h 32 min
Bit rate mode : Constant
Bit rate : 192 kb/s
Channel(s) : 2 channels
Channel layout : L R
Sampling rate : 48.0 kHz
Frame rate : 31.250 FPS (1536 SPF)
Compression mode : Lossy
Stream size : 127 MiB (9%)
Title : MVO [@[email protected]] MediaBit
Language : Russian
Service kind : Complete Main
Default : Yes
Forced : No
Text
ID : 3
Format : UTF-8
Codec ID : S_TEXT/UTF8
Codec ID/Info : UTF-8 Plain Text
Duration : 1 h 30 min
Bit rate : 35 b/s
Count of elements : 890
Stream size : 23.7 KiB (0%)
Title : SRT
Language : English
Default : No
Forced : No
Menu
00:00:00.000 : :Chapter 01
00:02:33.403 : :Chapter 02
00:08:22.502 : :Chapter 03
00:13:04.784 : :Chapter 04
00:18:23.894 : :Chapter 05
00:25:39.538 : :Chapter 06
00:32:36.621 : :Chapter 07
00:37:45.430 : :Chapter 08
00:39:35.790 : :Chapter 09
00:44:28.457 : :Chapter 10
00:51:29.253 : :Chapter 11
00:58:03.855 : :Chapter 12
01:06:33.156 : :Chapter 13
01:16:36.133 : :Chapter 14
01:21:30.344 : :Chapter 15
01:25:43.930 : :Chapter 16

Релиз от: & &

Download
Для скачивания .torrent файлов необходима регистрация
Сайт не распространяет и не хранит электронные версии произведений, а лишь предоставляет доступ к создаваемому пользователями каталогу ссылок на торрент-файлы, которые содержат только списки хеш-сумм

Страница 1 из 1

Ответить на тему

   Похожие торренты   Торрент 




tracker_crontracker_cron