Регистрация ·  Логин: Пароль: Запомнить   · Забыли пароль?




Ответить на тему
Статистика раздачи
Размер: 3.1 ГБ | Зарегистрирован: 15 ноя 2020, 16:27 | .torrent скачан: 0 раз(а), DHT: [ 0 ] раз(а)
Сидеров: [ 0  | 0 байт/сек ]   Личеров: [ 0  | 0 байт/сек ]   DHT: [ 0 / 0 ]
Автор Сообщение

Модератор

С нами: 2 года 4 месяца
Сообщения: 3361
Россия

Сообщение 15 ноя 2020, 16:27 

[Цитировать]

Информация о фильме
Название: Шесть минут до полуночи
Оригинальное название: Six Minutes to Midnight
Год выхода: 2020
Жанр: Драма
Режиссер: Энди Годдард
В ролях: Джуди Денч, Джеймс Д’Арси, Джим Бродбент, Эдди Иззард, Карла Юри, Дэвид Скофилд, Найджел Линдсэй, Кевин Элдон, Руперт Холидэй-Эванс, Мария-Виктория Драгуш

О фильме: Англия. Канун Второй мировой войны. Томас Миллер, учитель английского языка в Союзе немецких девушек, однажды высказывается против Адольфа Гитлера, после чего его обвиняют в убийстве и шпионаже. Директор школы мисс Роколл помогает Миллеру бежать.



Выпущено: Великобритания / Mad As Birds, West Madison Entertainment
Продолжительность: 01:39:20
Озвучивание: Дублированное | iTunes

Файл
Формат: MKV
Качество: WEB-DL 720p
Видео: MPEG-4 AVC, 4078 Kb/s, 1280x536
Аудио: Russian: 48 kHz, AC3 Dolby Digital, 3/2 (L, C, R, l, r) + LFE ch, ~384 Kbps
Субтитры: Нет
Дополнительно: Сохранены оригинальные чаптеры.

Релиз группы: &

Complete name : Shest.minut.do polunochi.2020.WEB-DL.720p.ELEKTRI4KA.UNIONGANG.mkv
Format : Matroska
Format version : Version 4 / Version 2
File size : 3.10 GiB
Duration : 1 h 39 min
Overall bit rate : 4 464 kb/s
Encoded date : UTC 2020-10-29 20:00:28
Writing application : mkvmerge v8.3.0 ('Over the Horizon') 64bit
Writing library : libebml v1.3.1 + libmatroska v1.4.2
Video
ID : 1
Format : AVC
Format/Info : Advanced Video Codec
Format profile : [email protected]
Format settings, CABAC : No
Format settings, Reference frames : 2 frames
Codec ID : V_MPEG4/ISO/AVC
Duration : 1 h 39 min
Bit rate : 4 078 kb/s
Width : 1 280 pixels
Height : 536 pixels
Display aspect ratio : 2.40:1
Frame rate mode : Constant
Frame rate : 23.976 (24000/1001) FPS
Color space : YUV
Chroma subsampling : 4:2:0
Bit depth : 8 bits
Scan type : Progressive
Bits/(Pixel*Frame) : 0.248
Stream size : 2.83 GiB (91%)
Title : .ELEKTRI4KA.UNIONGANG.
Language : English
Default : Yes
Forced : No
Color range : Limited
Color primaries : BT.709
Transfer characteristics : BT.709
Matrix coefficients : BT.709
Audio
ID : 2
Format : AC-3
Format/Info : Audio Coding 3
Mode extension : CM (complete main)
Format settings, Endianness : Big
Codec ID : A_AC3
Duration : 1 h 39 min
Bit rate mode : Constant
Bit rate : 384 kb/s
Channel(s) : 6 channels
Channel positions : Front: L C R, Side: L R, LFE
Sampling rate : 48.0 kHz
Frame rate : 31.250 FPS (1536 spf)
Bit depth : 16 bits
Compression mode : Lossy
Stream size : 273 MiB (9%)
Title : DUB (iTunes)
Language : Russian
Default : Yes
Forced : No
Menu
00:00:00.000 : en:Глава 1
00:05:44.761 : en:Глава 2
00:11:26.436 : en:Глава 3
00:21:30.581 : en:Глава 4
00:30:58.649 : en:Глава 5
00:42:14.157 : en:Глава 6
00:48:54.807 : en:Глава 7
01:03:06.909 : en:Глава 8
01:09:23.368 : en:Глава 9
01:18:08.017 : en:Глава 10
01:28:09.243 : en:Глава 11

Download
Для скачивания .torrent файлов необходима регистрация
Сайт не распространяет и не хранит электронные версии произведений, а лишь предоставляет доступ к создаваемому пользователями каталогу ссылок на торрент-файлы, которые содержат только списки хеш-сумм

Страница 1 из 1

Ответить на тему

   Похожие торренты   Торрент 




tracker_crontracker_cron