Регистрация ·  Логин: Пароль: Запомнить   · Забыли пароль?




Ответить на тему
Статистика раздачи
Размер: 1.43 ГБ | Зарегистрирован: 15 ноя 2020, 16:27 | .torrent скачан: 0 раз(а), DHT: [ 0 ] раз(а)
Сидеров: [ 0  | 0 байт/сек ]   Личеров: [ 0  | 0 байт/сек ]   DHT: [ 0 / 0 ]
Автор Сообщение

Модератор

С нами: 2 года 4 месяца
Сообщения: 3361
Россия

Сообщение 15 ноя 2020, 16:27 

[Цитировать]

Чудо-детки: Непутевые волшебники / Die Wolf-Gäng / The Magic Kids - Three Unlikely Heroes

Информация о фильме:
Название: Чудо-детки: Непутевые волшебники
Оригинальное название: Die Wolf-Gäng / The Magic Kids - Three Unlikely Heroes
Год выхода: 2020
Жанр: Фэнтези, приключения, семейный
Режиссер: Тим Трагезер
В ролях: Кристиан Беркель, Арсений Бультман, Буц Бузе, Ширли Феринг, Арвед Фризе, Соня Герхардт, Николь Хеестерс, Грета Хуберт, Рик Каваниан, Торстен Кавур
Описание: В центре сюжета картины история 13-летнего мальчика вампира Влада, который попадает в одну из самых престижных школ волшебства мира. Городок Краильсфельден и школа оказываются пристанищем самых разнообразных сказочных существ. С появлением Влада и его отца там теперь есть и вампиры. Всё выглядит чудесно, но у маленького Влада есть одна большая проблема. Вампир совершенно не выносит вида крови. Его друзьями в школе становятся два таких же неудачника: страдающая аэрофобией фея и мальчик-оборотень с аллергией на шерсть животных. Вместе трём героям предстоит пережить незабываемые приключения и бросить вызов мэру городка.

Страна: Германия
Студия: Rat Pack Filmproduktion, Deutsche Columbia Pictures Film Produktion
Продолжительность: 01:36:50
Перевод: Дублированное - iTunes

Информация о файле:
Кодек: AVC
Формат: MKV
Качество: WEB-DLRip-AVC
Видео: MPEG-4 AVC, 1024х428 (2.40:1), 24.000 fps, 1733 kb/s, 0.165
Аудио RU: AC3, 6 ch, 48 kHz, 384 kbps
Навигация по главам: Есть


General
Unique ID : 91613114183512073676670209878159110495 (0x44EC0B42F56FFC24E3CA12E62851B15F)
Complete name : D:uTorrentРипы_от_wolf1245_MediaBitThe Magic Kids - Three Unlikely Heroes (2020) WEB-DLRip-AVC wolf1245 & MediaBit.mkv
Format : Matroska
Format version : Version 4
File size : 1.43 GiB
Duration : 1 h 36 min
Overall bit rate : 2 117 kb/s
Movie name : Die Wolf-Gäng / The Magic Kids - Three Unlikely Heroes (2020) WEB-DLRip-AVC from wolf1245 & MediaBit
Encoded date : UTC 2020-10-29 17:03:05
Writing application : mkvmerge v51.0.0 ('I Wish') 64-bit
Writing library : libebml v1.4.0 + libmatroska v1.6.2
Video
ID : 1
Format : AVC
Format/Info : Advanced Video Codec
Format profile : [email protected]
Format settings : CABAC / 11 Ref Frames
Format settings, CABAC : Yes
Format settings, Reference frames : 11 frames
Codec ID : V_MPEG4/ISO/AVC
Duration : 1 h 36 min
Bit rate : 1 733 kb/s
Width : 1 024 pixels
Height : 428 pixels
Display aspect ratio : 2.40:1
Frame rate mode : Constant
Frame rate : 24.000 FPS
Color space : YUV
Chroma subsampling : 4:2:0
Bit depth : 8 bits
Scan type : Progressive
Bits/(Pixel*Frame) : 0.165
Stream size : 1.17 GiB (82%)
Title : wolf1245 & MediaBit
Writing library : x264 core 157 r2958 57baac4
Encoding settings : cabac=1 / ref=11 / deblock=1:-3:-3 / analyse=0x3:0x133 / me=umh / subme=11 / psy=1 / psy_rd=1.03:0.03 / mixed_ref=1 / me_range=48 / chroma_me=1 / trellis=2 / 8x8dct=1 / cqm=0 / deadzone=21,11 / fast_pskip=0 / chroma_qp_offset=-3 / threads=10 / lookahead_threads=2 / sliced_threads=0 / nr=0 / decimate=0 / interlaced=0 / bluray_compat=0 / constrained_intra=0 / bframes=11 / b_pyramid=2 / b_adapt=2 / b_bias=0 / direct=3 / weightb=1 / open_gop=0 / weightp=2 / keyint=240 / keyint_min=24 / scenecut=40 / intra_refresh=0 / rc_lookahead=60 / rc=2pass / mbtree=0 / bitrate=1733 / ratetol=1.0 / qcomp=0.60 / qpmin=0 / qpmax=69 / qpstep=4 / cplxblur=20.0 / qblur=0.5 / vbv_maxrate=50000 / vbv_bufsize=62500 / nal_hrd=none / filler=0 / ip_ratio=1.40 / pb_ratio=1.30 / aq=2:0.80
Language : English
Default : Yes
Forced : No
Color range : Limited
Color primaries : BT.709
Transfer characteristics : BT.709
Matrix coefficients : BT.709
Audio
ID : 2
Format : AC-3
Format/Info : Audio Coding 3
Commercial name : Dolby Digital
Codec ID : A_AC3
Duration : 1 h 36 min
Bit rate mode : Constant
Bit rate : 384 kb/s
Channel(s) : 6 channels
Channel layout : L R C LFE Ls Rs
Sampling rate : 48.0 kHz
Frame rate : 31.250 FPS (1536 SPF)
Compression mode : Lossy
Stream size : 266 MiB (18%)
Title : DUB | iTunes
Language : Russian
Service kind : Complete Main
Default : Yes
Forced : No
Menu
00:00:00.000 : :Глава 1
00:08:21.625 : :Глава 2
00:16:35.125 : :Глава 3
00:25:08.416 : :Глава 4
00:33:58.041 : :Глава 5
00:42:41.999 : :Глава 6
00:50:53.665 : :Глава 7
00:58:59.748 : :Глава 8
01:06:48.581 : :Глава 9
01:14:54.414 : :Глава 10
01:23:13.497 : :Глава 11

Релиз от: & &

Download
Для скачивания .torrent файлов необходима регистрация
Сайт не распространяет и не хранит электронные версии произведений, а лишь предоставляет доступ к создаваемому пользователями каталогу ссылок на торрент-файлы, которые содержат только списки хеш-сумм

Страница 1 из 1

Ответить на тему

   Похожие торренты   Торрент 




tracker_crontracker_cron