Регистрация ·  Логин: Пароль: Запомнить   · Забыли пароль?




Ответить на тему
Статистика раздачи
Размер: 19.61 ГБ | Зарегистрирован: 15 ноя 2020, 16:26 | .torrent скачан: 0 раз(а), DHT: [ 0 ] раз(а)
Сидеров: [ 0  | 0 байт/сек ]   Личеров: [ 0  | 0 байт/сек ]   DHT: [ 0 / 0 ]
Автор Сообщение

Модератор

С нами: 2 года 5 месяцев
Сообщения: 3401
Россия

Сообщение 15 ноя 2020, 16:26 

[Цитировать]


Информация о фильме
Название: Клаустрофобы: Квест в Москве
Оригинальное название: Follow Me
Год выхода: 2020
Жанр: Ужасы, триллер
Режиссер: Уилл Верник
В ролях: Кигэн Аллен, Холлэнд Роден, Дензел Уитакер, Ронен Рубинштейн, Павел Лычников, Джордж Янко, Сия, Данияр, Димитар Маринов, Эмилия Арес Зорян

О фильме:
Популярный американский видеоблогер Коул сделал имя на участии в самых зрелищных и опасных испытаниях, которые он находит по всему миру. На 10-летие своего канала он непременно хочет устроить что-нибудь особенное, и друзья предлагают ему пройти необычный квест в Москве. Поначалу Коул настроен скептически. Квест? Кого этим сейчас можно удивить? Узнав, что данные испытания разработали специально для него, парень воодушевляется, но квест окажется намного страшнее, чем он мог предположить.



Страна: США
Студия: Escape Productions
Продолжительность: 01:32:02
Перевод:
• Профессиональный (полное дублирование) | iTunes

Файл
Качество: BDRemux 1080p
Формат: MKV
Кодек: MPEG-4 AVC
Видео: 1920x1080 (16:9), 23.976 fps, MPEG-4 AVC ~ 27.6 Mbps avg, 0.554 bit/pixel
Аудио: AC3, 48 kHz, 6 ch, ~384.00 kbps avg | русский | iTunes
Аудио: DTS-HD MA, 48 kHz, 6 ch, ~2565.00 kbps avg | английский | Оригинал
Субтитры: Английские (SDH)



Общее
Уникальный идентификатор : 239974772879972123148755329437035526460 (0xB48975C9076108B7064553D29F95F93C)
Полное имя : Follow.Me.2020.1080p.BDRemux.AVC.mkv
Формат : Matroska
Версия формата : Version 4
Размер файла : 19,6 Гбайт
Продолжительность : 1 ч. 32 м.
Режим общего битрейта : Переменный
Общий поток : 30,5 Мбит/сек
Название фильма : Клаустрофобы: Квест в Москве / Follow Me (2020)
Дата кодирования : UTC 2020-10-29 03:02:51
Программа кодирования : mkvmerge v47.0.0 ('Black Flag') 64-bit
Библиотека кодирования : libebml v1.3.10 + libmatroska v1.5.2
Обложка : Yes
Attachments : cover.jpg
IMDB : tt8160834
TMDB : movie/606625

Видео
Идентификатор : 1
Формат : AVC
Формат/Информация : Advanced Video Codec
Профиль формата : [email protected]
Настройки формата : CABAC / 4 Ref Frames
Параметр CABAC формата : Да
Параметр RefFrames формата : 4 кадра
Идентификатор кодека : V_MPEG4/ISO/AVC
Продолжительность : 1 ч. 32 м.
Вид битрейта : Переменный
Битрейт : 27,6 Мбит/сек
Максимальный битрейт : 38,0 Мбит/сек
Ширина : 1 920 пикселей
Высота : 1 080 пикселей
Соотношение сторон : 16:9
Режим частоты кадров : Постоянный
Частота кадров : 23,976 (24000/1001) кадра/сек
Цветовое пространство : YUV
Субдискретизация насыщенности : 4:2:0
Битовая глубина : 8 бит
Тип развёртки : Прогрессивная
Бит/(Пиксели*Кадры) : 0.554
Размер потока : 17,7 Гбайт (90%)
Заголовок : MPEG-4 AVC Video / 27986 kbps / 1080p / 23.976 fps / 16:9 / High Profile 4.1
Язык : English
Default : Да
Forced : Нет

Аудио #1
Идентификатор : 2
Формат : AC-3
Формат/Информация : Audio Coding 3
Коммерческое название : Dolby Digital
Идентификатор кодека : A_AC3
Продолжительность : 1 ч. 32 м.
Вид битрейта : Постоянный
Битрейт : 384 Кбит/сек
Каналы : 6 каналов
Channel layout : L R C LFE Ls Rs
Частота : 48,0 КГц
Частота кадров : 31,250 кадров/сек (1536 SPF)
Метод сжатия : С потерями
Размер потока : 253 Мбайт (1%)
Заголовок : iTunes
Язык : Russian
Service kind : Complete Main
Default : Да
Forced : Да

Аудио #2
Идентификатор : 3
Формат : DTS XLL
Формат/Информация : Digital Theater Systems
Коммерческое название : DTS-HD Master Audio
Идентификатор кодека : A_DTS
Продолжительность : 1 ч. 32 м.
Вид битрейта : Переменный
Битрейт : 2 565 Кбит/сек
Каналы : 6 каналов
Channel layout : C L R Ls Rs LFE
Частота : 48,0 КГц
Частота кадров : 93,750 кадра/сек (512 SPF)
Битовая глубина : 16 бит
Метод сжатия : Без потерь
Размер потока : 1,65 Гбайт (8%)
Заголовок : DTS-HD Master Audio / 5.1 / 48 kHz / 2565 kbps / 16-bit
Язык : English
Default : Нет
Forced : Нет

Текст
Идентификатор : 4
Формат : UTF-8
Идентификатор кодека : S_TEXT/UTF8
Идентификатор кодека/Информация : UTF-8 Plain Text
Продолжительность : 1 ч. 27 м.
Битрейт : 68 бит/сек
Count of elements : 1594
Размер потока : 43,5 Кбайт (0%)
Заголовок : SDH
Язык : English
Default : Нет
Forced : Нет

Меню
00:00:00.000 : en:Chapter 1
00:08:20.708 : en:Chapter 2
00:16:59.809 : en:Chapter 3
00:25:56.053 : en:Chapter 4
00:31:57.873 : en:Chapter 5
00:39:01.296 : en:Chapter 6
00:46:47.012 : en:Chapter 7
00:53:13.940 : en:Chapter 8
00:59:23.976 : en:Chapter 9
01:07:08.774 : en:Chapter 10
01:14:31.049 : en:Chapter 11
01:26:27.765 : en:Chapter 12



Download
Для скачивания .torrent файлов необходима регистрация
Сайт не распространяет и не хранит электронные версии произведений, а лишь предоставляет доступ к создаваемому пользователями каталогу ссылок на торрент-файлы, которые содержат только списки хеш-сумм

Страница 1 из 1

Ответить на тему

   Похожие торренты   Торрент