Регистрация ·  Логин: Пароль: Запомнить   · Забыли пароль?




Ответить на тему
Статистика раздачи
Размер: 9.21 ГБ | Зарегистрирован: 15 ноя 2020, 16:26 | .torrent скачан: 0 раз(а), DHT: [ 0 ] раз(а)
Сидеров: [ 0  | 0 байт/сек ]   Личеров: [ 0  | 0 байт/сек ]   DHT: [ 0 / 0 ]
Автор Сообщение

Модератор

С нами: 2 года 4 месяца
Сообщения: 3361
Россия

Сообщение 15 ноя 2020, 16:26 

[Цитировать]


Информация о фильме
Название: Клаустрофобы: Квест в Москве
Оригинальное название: Follow Me
Год выхода: 2020
Жанр: Ужасы, триллер
Режиссер: Уилл Верник
В ролях: Кигэн Аллен, Холлэнд Роден, Дензел Уитакер, Ронен Рубинштейн, Павел Лычников, Джордж Янко, Сия, Данияр, Димитар Маринов, Эмилия Арес Зорян

О фильме:
Популярный американский видеоблогер Коул сделал имя на участии в самых зрелищных и опасных испытаниях, которые он находит по всему миру. На 10-летие своего канала он непременно хочет устроить что-нибудь особенное, и друзья предлагают ему пройти необычный квест в Москве. Поначалу Коул настроен скептически. Квест? Кого этим сейчас можно удивить? Узнав, что данные испытания разработали специально для него, парень воодушевляется, но квест окажется намного страшнее, чем он мог предположить.



Страна: США
Студия: Escape Productions
Продолжительность: 01:32:02
Перевод:
• Профессиональный (полное дублирование) | iTunes

Файл
Качество: BDRip 1080p
Формат: MKV
Кодек: MPEG-4 AVC
Видео: 1920x804 (2.40:1), 23.976 fps, MPEG-4 AVC ~ 13.3 Mbps avg, 0.359 bit/pixel
Аудио: AC3, 48 kHz, 6 ch, ~384.00 kbps avg | русский | iTunes
Аудио: AC3, 48 kHz, 6 ch, ~640.00 kbps avg | английский | Оригинал
Субтитры: Английские (SDH)



Общее
Уникальный идентификатор : 195438534584342574056846947306953416096 (0x930817B4EA96930B0E5B12603D0E9DA0)
Полное имя : Follow.Me.2020.1080p.BluRay.DD.5.1.x264.mkv
Формат : Matroska
Версия формата : Version 4
Размер файла : 9,21 Гбайт
Продолжительность : 1 ч. 32 м.
Общий поток : 14,3 Мбит/сек
Название фильма : Клаустрофобы: Квест в Москве / Follow Me (2020)
Дата кодирования : UTC 2020-10-29 02:43:21
Программа кодирования : mkvmerge v47.0.0 ('Black Flag') 64-bit
Библиотека кодирования : libebml v1.3.10 + libmatroska v1.5.2
Обложка : Yes
Attachments : cover.jpg

Видео
Идентификатор : 1
Формат : AVC
Формат/Информация : Advanced Video Codec
Профиль формата : [email protected]
Настройки формата : CABAC / 5 Ref Frames
Параметр CABAC формата : Да
Параметр RefFrames формата : 5 кадров
Идентификатор кодека : V_MPEG4/ISO/AVC
Продолжительность : 1 ч. 32 м.
Битрейт : 13,3 Мбит/сек
Ширина : 1 920 пикселей
Высота : 804 пикселя
Соотношение сторон : 2,40:1
Режим частоты кадров : Постоянный
Частота кадров : 23,976 (24000/1001) кадра/сек
Цветовое пространство : YUV
Субдискретизация насыщенности : 4:2:0
Битовая глубина : 8 бит
Тип развёртки : Прогрессивная
Бит/(Пиксели*Кадры) : 0.359
Размер потока : 8,55 Гбайт (93%)
Заголовок : # iFT
Библиотека кодирования : x264 core 161 r3018+53 ~ Encoded by Mocunaman in Portugal
Настройки программы : cabac=1 / ref=5 / deblock=1:-3:-3 / analyse=0x3:0x113 / me=umh / subme=11 / psy=1 / fade_compensate=0.00 / psy_rd=1.00:0.00 / mixed_ref=1 / me_range=32 / chroma_me=1 / trellis=2 / 8x8dct=1 / cqm=0 / deadzone=21,11 / fast_pskip=0 / chroma_qp_offset=-2 / threads=25 / lookahead_threads=6 / sliced_threads=0 / nr=0 / decimate=0 / interlaced=0 / bluray_compat=0 / constrained_intra=0 / fgo=0 / bframes=10 / b_pyramid=2 / b_adapt=2 / b_bias=0 / direct=3 / weightb=1 / open_gop=0 / weightp=2 / keyint=250 / keyint_min=23 / scenecut=40 / intra_refresh=0 / rc_lookahead=60 / rc=crf / mbtree=0 / crf=18.3000 / qcomp=0.65 / qpmin=0:0:0 / qpmax=69:69:69 / qpstep=4 / vbv_maxrate=62500 / vbv_bufsize=78125 / crf_max=0.0 / nal_hrd=none / filler=0 / ip_ratio=1.30 / pb_ratio=1.20 / aq=3:0.85 / aq-sensitivity=10.00 / aq-factor=1.00:1.00:1.00 / aq2=0 / aq3=0 / zones=936,7176,crf=17.3/15984,27768,crf=17.3/38544,126361,crf=17.3
Язык : English
Default : Да
Forced : Нет
Цветовой диапазон : Limited
Основные цвета : BT.709
Характеристики трансфера : BT.709
Коэффициенты матрицы : BT.709

Аудио #1
Идентификатор : 2
Формат : AC-3
Формат/Информация : Audio Coding 3
Коммерческое название : Dolby Digital
Идентификатор кодека : A_AC3
Продолжительность : 1 ч. 32 м.
Вид битрейта : Постоянный
Битрейт : 384 Кбит/сек
Каналы : 6 каналов
Channel layout : L R C LFE Ls Rs
Частота : 48,0 КГц
Частота кадров : 31,250 кадров/сек (1536 SPF)
Метод сжатия : С потерями
Размер потока : 253 Мбайт (3%)
Заголовок : iTunes
Язык : Russian
Service kind : Complete Main
Default : Да
Forced : Да

Аудио #2
Идентификатор : 3
Формат : AC-3
Формат/Информация : Audio Coding 3
Коммерческое название : Dolby Digital
Идентификатор кодека : A_AC3
Продолжительность : 1 ч. 32 м.
Вид битрейта : Постоянный
Битрейт : 640 Кбит/сек
Каналы : 6 каналов
Channel layout : L R C LFE Ls Rs
Частота : 48,0 КГц
Частота кадров : 31,250 кадров/сек (1536 SPF)
Метод сжатия : С потерями
Размер потока : 421 Мбайт (4%)
Язык : English
Service kind : Complete Main
Default : Нет
Forced : Нет

Текст
Идентификатор : 4
Формат : UTF-8
Идентификатор кодека : S_TEXT/UTF8
Идентификатор кодека/Информация : UTF-8 Plain Text
Продолжительность : 1 ч. 27 м.
Битрейт : 68 бит/сек
Count of elements : 1594
Размер потока : 43,5 Кбайт (0%)
Заголовок : SDH
Язык : English
Default : Нет
Forced : Нет

Меню
00:00:00.000 : en:Chapter 1
00:08:20.708 : en:Chapter 2
00:16:59.809 : en:Chapter 3
00:25:56.053 : en:Chapter 4
00:31:57.873 : en:Chapter 5
00:39:01.296 : en:Chapter 6
00:46:47.012 : en:Chapter 7
00:53:13.940 : en:Chapter 8
00:59:23.976 : en:Chapter 9
01:07:08.774 : en:Chapter 10
01:14:31.049 : en:Chapter 11
01:26:27.765 : en:Chapter 12

Download
Для скачивания .torrent файлов необходима регистрация
Сайт не распространяет и не хранит электронные версии произведений, а лишь предоставляет доступ к создаваемому пользователями каталогу ссылок на торрент-файлы, которые содержат только списки хеш-сумм

Страница 1 из 1

Ответить на тему

   Похожие торренты   Торрент 




tracker_crontracker_cron