Регистрация ·  Логин: Пароль: Запомнить   · Забыли пароль?




Ответить на тему
Статистика раздачи
Размер: 1.49 ГБ | Зарегистрирован: 15 ноя 2020, 16:26 | .torrent скачан: 0 раз(а), DHT: [ 10569 ] раз(а)
Сидеров: [ 1196  | 0 байт/сек ]   Личеров: [ 26  | 0 байт/сек ]   DHT: [ 1196 / 26 ]
Автор Сообщение

Модератор

С нами: 2 года 4 месяца
Сообщения: 3361
Россия

Сообщение 15 ноя 2020, 16:26 

[Цитировать]


Информация о фильме
Название: Афера века
Оригинальное название: El robo del siglo / The Heist of the Century
Год выхода: 2020
Жанр: Комедия, криминал
Режиссер: Ариэль Виноград
В ролях: Гильермо Франселья, Диего Перетти, Луис Луке, Пабло Раго, Рафаэль Ферро, Мариано Архенто, Хуан Алари, Джоанна Франселла, Марио Аларкон, Почи Дукассе

О фильме:
В самом фешенебельном пригороде Буэнос-Айреса пятеро грабителей ворвались в здание банка Рио де Акассусо. Взяв в заложники всех сотрудников и посетителей банка, они начали переговоры с прибывшей полицией. Пока сотни полицейских окружали здание, благодаря хитроумному плану и тщательной подготовке преступникам удалось вынести из хранилища деньги и ценности на общую сумму в более чем 15 миллионов долларов.



Выпущено: Аргентина / AZ Films, MarVista Entertainment, Televisión Federal
Продолжительность: 01:54:28
Озвучивание: Дублированное | iTunes

Файл
Формат: Matroska
Качество: WEB-DLRip-AVC
Видео: 1024x428 at 24.000 fps, [email protected], ~1475 kbps
Аудио: AC3, 6 ch, ~384 kbps - | Русский | -
Субтитры: Нет

***Релиз от: -=DoMiNo=-

x264 [info]: frame I:1458 Avg QP:16.50 size: 51864
x264 [info]: frame P:39244 Avg QP:18.02 size: 16527
x264 [info]: frame B:124136 Avg QP:19.93 size: 4369

General
Format : Matroska
Format version : Version 4
File size : 1.49 GiB
Duration : 1 h 54 min
Overall bit rate : 1 861 kb/s
Movie name : Афера века.(2020).WEB-DLRip-AVC.[-=DoMiNo=-]
Encoded date : UTC 2020-10-28 20:47:44
Writing application : mkvmerge v8.3.0 ('Over the Horizon') 64bit
Writing library : libebml v1.3.1 + libmatroska v1.4.2
Cover : Yes
Attachments : Cover.jpg / Cover 2.jpg

Video
ID : 1
Format : AVC
Format/Info : Advanced Video Codec
Format profile : [email protected]
Format settings : CABAC / 10 Ref Frames
Format settings, CABAC : Yes
Format settings, Reference : 10 frames
Codec ID : V_MPEG4/ISO/AVC
Duration : 1 h 54 min
Bit rate : 1 475 kb/s
Width : 1 024 pixels
Height : 428 pixels
Display aspect ratio : 2.40:1
Frame rate mode : Constant
Frame rate : 24.000 FPS
Color space : YUV
Chroma subsampling : 4:2:0
Bit depth : 8 bits
Scan type : Progressive
Bits/(Pixel*Frame) : 0.140
Stream size : 1.18 GiB (79%)
Title : -=DoMiNo=-
Writing library : x264 core 161 r3027 4121277
Encoding settings : cabac=1 / ref=10 / deblock=1:-2:-2 / analyse=0x3:0x133 / me=umh / subme=10 / psy=1 / psy_rd=1.00:0.15 / mixed_ref=1 / me_range=32 / chroma_me=1 / trellis=2 / 8x8dct=1 / cqm=0 / deadzone=21,11 / fast_pskip=1 / chroma_qp_offset=-3 / threads=6 / lookahead_threads=1 / sliced_threads=0 / nr=0 / decimate=1 / interlaced=0 / bluray_compat=0 / constrained_intra=0 / bframes=10 / b_pyramid=2 / b_adapt=2 / b_bias=0 / direct=1 / weightb=1 / open_gop=0 / weightp=2 / keyint=250 / keyint_min=24 / scenecut=40 / intra_refresh=0 / rc_lookahead=60 / rc=crf / mbtree=0 / crf=19.0 / qcomp=0.60 / qpmin=0 / qpmax=69 / qpstep=4 / vbv_maxrate=50000 / vbv_bufsize=62500 / crf_max=0.0 / nal_hrd=none / filler=0 / ip_ratio=1.40 / pb_ratio=1.30 / aq=1:1.00
Language : English
Default : Yes
Forced : No
Color range : Limited
Color primaries : BT.709
Transfer characteristics : BT.709
Matrix coefficients : BT.709

Audio
ID : 2
Format : AC-3
Format/Info : Audio Coding 3
Commercial name : Dolby Digital
Codec ID : A_AC3
Duration : 1 h 54 min
Bit rate mode : Constant
Bit rate : 384 kb/s
Channel(s) : 6 channels
Channel layout : L R C LFE Ls Rs
Sampling rate : 48.0 kHz
Frame rate : 31.250 FPS (1536 SPF)
Compression mode : Lossy
Stream size : 314 MiB (21%)
Title : DUB
Language : Russian
Service kind : Complete Main
Default : Yes
Forced : Yes

Menu
00:00:00.000 : en:Глава 1
00:09:19.291 : en:Глава 2
00:18:50.249 : en:Глава 3
00:26:39.915 : en:Глава 4
00:33:39.998 : en:Глава 5
00:42:20.248 : en:Глава 6
00:49:19.873 : en:Глава 7
00:57:50.706 : en:Глава 8
01:05:51.747 : en:Глава 9
01:13:37.455 : en:Глава 10
01:23:21.746 : en:Глава 11
01:30:18.787 : en:Глава 12
01:38:25.162 : en:Глава 13
01:44:13.828 : en:Глава 14

Download
Для скачивания .torrent файлов необходима регистрация
Сайт не распространяет и не хранит электронные версии произведений, а лишь предоставляет доступ к создаваемому пользователями каталогу ссылок на торрент-файлы, которые содержат только списки хеш-сумм

Страница 1 из 1

Ответить на тему

   Похожие торренты   Торрент 




tracker_crontracker_cron