Регистрация ·  Логин: Пароль: Запомнить   · Забыли пароль?




Ответить на тему
Статистика раздачи
Размер: 1.41 ГБ | Зарегистрирован: 15 ноя 2020, 16:25 | .torrent скачан: 0 раз(а), DHT: [ 729 ] раз(а)
Сидеров: [ 21  | 0 байт/сек ]   Личеров: [ 0  | 0 байт/сек ]   DHT: [ 21 / 0 ]
Автор Сообщение

Модератор

С нами: 2 года 5 месяцев
Сообщения: 3401
Россия

Сообщение 15 ноя 2020, 16:25 

[Цитировать]


«Оно тебя выбрало, тебя уже не спасти»

Информация о фильме
Название: Антебеллум
Оригинальное название: Antebellum
Год выхода: 2020
Жанр: Триллер, драма
Режиссер: Джерард Буш, Кристофер Ренц
В ролях: Жанель Моне, Марке Ричардсон II, Эрик Ланж, Джек Хьюстон, Кирси Клемонс, Тонгай Арнольд Чириса, Габури Сидибе, Роберт Арамайо, Джена Мэлоун, Лили Коулес

О фильме:
Известная писательница, активистка и борец за права чёрных женщин Вероника Хенли оказывается в ужасающей реальности. Теперь она - бесправная рабыня на южной плантации, и в компании таких же бедолаг вынуждена ежедневно собирать хлопок и беспрекословно терпеть издевательства белых надсмотрщиков. Выбраться из этого ада не так-то просто, а всех пойманных беглецов ждёт жестокая кара.



Страна: США
Студия: Lionsgate, QC Entertainment
Продолжительность: 01:46:00
Перевод:
• Профессиональный (полное дублирование) | iTunes

Файл
Качество: BDRip-AVC
Исходник: Antebellum 2020 Blu-ray 1080p AVC Atmos TrueHD 7 [email protected]
Формат: MKV
Кодек: MPEG-4 AVC
Видео: 720x302 (2.40:1), 23,976 fps, MPEG-4 AVC ~ 1520 Kbps avg, 0.292 bit/pixel
Аудио: AC3, 48 kHz, 6 ch, ~384.00 kbps avg | русский | iTunes
Субтитры: Английские (полные)
Общее
Уникальный идентификатор : 324429420721417540802518145915352018400 (0xF412D5682B861752FC3DEE1AA4286DE0)
Полное имя : Antebellum.2020.BDRip.1.41Gb.x264.mkv
Формат : Matroska
Версия формата : Version 4
Размер файла : 1,41 Гбайт
Продолжительность : 1 ч. 46 м.
Общий поток : 1 901 Кбит/сек
Название фильма : Антебеллум / Antebellum (2020)
Дата кодирования : UTC 2020-10-28 08:04:07
Программа кодирования : mkvmerge v47.0.0 ('Black Flag') 64-bit
Библиотека кодирования : libebml v1.3.10 + libmatroska v1.5.2
Обложка : Yes
Attachments : cover.jpg

Видео
Идентификатор : 1
Формат : AVC
Формат/Информация : Advanced Video Codec
Профиль формата : [email protected]
Настройки формата : CABAC / 12 Ref Frames
Параметр CABAC формата : Да
Параметр RefFrames формата : 12 кадров
Идентификатор кодека : V_MPEG4/ISO/AVC
Продолжительность : 1 ч. 46 м.
Битрейт : 1 520 Кбит/сек
Ширина : 720 пикселей
Высота : 302 пикселя
Соотношение сторон : 2,40:1
Режим частоты кадров : Постоянный
Частота кадров : 23,976 (24000/1001) кадра/сек
Цветовое пространство : YUV
Субдискретизация насыщенности : 4:2:0
Битовая глубина : 8 бит
Тип развёртки : Прогрессивная
Бит/(Пиксели*Кадры) : 0.292
Размер потока : 1,12 Гбайт (80%)
Заголовок : #stillet
Библиотека кодирования : x264 core 152 r2851bm ba24899
Настройки программы : cabac=1 / ref=12 / deblock=1:-2:-2 / analyse=0x3:0x113 / me=umh / subme=10 / psy=1 / psy_rd=1.00:0.15 / mixed_ref=1 / me_range=32 / chroma_me=1 / trellis=2 / 8x8dct=1 / cqm=0 / deadzone=21,11 / fast_pskip=0 / chroma_qp_offset=-3 / threads=8 / lookahead_threads=3 / sliced_threads=0 / nr=0 / decimate=0 / interlaced=0 / bluray_compat=0 / constrained_intra=0 / bframes=14 / b_pyramid=2 / b_adapt=2 / b_bias=0 / direct=3 / weightb=1 / open_gop=0 / weightp=2 / keyint=240 / keyint_min=23 / scenecut=40 / intra_refresh=0 / rc=2pass / mbtree=0 / bitrate=1520 / ratetol=1.0 / qcomp=0.60 / qpmin=0 / qpmax=69 / qpstep=4 / cplxblur=20.0 / qblur=0.5 / ip_ratio=1.40 / pb_ratio=1.30 / aq=1:1.00
Язык : English
Default : Да
Forced : Нет

Аудио
Идентификатор : 2
Формат : AC-3
Формат/Информация : Audio Coding 3
Коммерческое название : Dolby Digital
Идентификатор кодека : A_AC3
Продолжительность : 1 ч. 45 м.
Вид битрейта : Постоянный
Битрейт : 384 Кбит/сек
Каналы : 6 каналов
Channel layout : L R C LFE Ls Rs
Частота : 48,0 КГц
Частота кадров : 31,250 кадров/сек (1536 SPF)
Метод сжатия : С потерями
Размер потока : 291 Мбайт (20%)
Заголовок : iTunes
Язык : Russian
Service kind : Complete Main
Default : Да
Forced : Да

Текст
Идентификатор : 3
Формат : UTF-8
Идентификатор кодека : S_TEXT/UTF8
Идентификатор кодека/Информация : UTF-8 Plain Text
Продолжительность : 1 ч. 36 м.
Битрейт : 42 бит/сек
Count of elements : 1040
Размер потока : 30,0 Кбайт (0%)
Заголовок : Full
Язык : English
Default : Нет
Forced : Нет

Меню
00:00:00.000 : :eng: 01
00:07:53.346 : :eng: 02
00:12:54.648 : :eng: 03
00:18:24.603 : :eng: 04
00:22:50.576 : :eng: 05
00:28:19.820 : :eng: 06
00:35:25.456 : :eng: 07
00:40:31.929 : :eng: 08
00:47:07.824 : :eng: 09
00:53:07.016 : :eng: 10
00:59:17.427 : :eng: 11
01:07:22.288 : :eng: 12
01:13:17.475 : :eng: 13
01:18:37.295 : :eng: 14
01:24:42.283 : :eng: 15
01:32:54.819 : :eng: 16
01:46:00.145 : :eng: 17


Download
Для скачивания .torrent файлов необходима регистрация
Сайт не распространяет и не хранит электронные версии произведений, а лишь предоставляет доступ к создаваемому пользователями каталогу ссылок на торрент-файлы, которые содержат только списки хеш-сумм

Страница 1 из 1

Ответить на тему

   Похожие торренты   Торрент