Регистрация ·  Логин: Пароль: Запомнить   · Забыли пароль?




Ответить на тему
Статистика раздачи
Размер: 1.46 ГБ | Зарегистрирован: 15 ноя 2020, 16:25 | .torrent скачан: 0 раз(а), DHT: [ 463 ] раз(а)
Сидеров: [ 23  | 0 байт/сек ]   Личеров: [ 2  | 0 байт/сек ]   DHT: [ 23 / 2 ]
Автор Сообщение

Модератор

С нами: 2 года 4 месяца
Сообщения: 3361
Россия

Сообщение 15 ноя 2020, 16:25 

[Цитировать]


«You've Got to Start at the Bottom Before You Take It to the Top»

Информация о фильме
Название: Ассистент звезды
Оригинальное название: The High Note
Год выхода: 2020
Жанр: Драма, мелодрама, музыка
Режиссер: Ниша Ганатра
В ролях: Дакота Джонсон, Трэйси Эллис Росс, Келвин Харрисон, Айс Кьюб, Зои Чао, Билл Пуллман, Джун Рафаэль, Юджин Кордеро, Марк Ивэн Джексон, Эдди Иззард

О фильме:
С самого детства музыка играла важную роль в жизни Мэгги, и вот уже три года девушка работает личным ассистентом одного их своих кумиров - певицы Грэйс Дэвис. Та без своей помощницы как без рук и, хотя находится на излёте карьеры, зачастую ведёт себя как заправская дива. Сама же Мэгги внезапно понимает, что всю жизнь хотела заниматься продюсированием музыки, и когда судьба случайно сводит её с начинающим певцом, девушка представляется ему продюсером и, не сказав Грэйс, начинает с ним работать.



Страна: США, Великобритания
Студия: Perfect World (Beijing) Pictures Co., Working Title Films
Продолжительность: 01:53:22
Перевод:
• Профессиональный (полное дублирование) | Лицензия Blu-ray EUR

Файл
Качество: BDRip-AVC
Исходник: The.High.Note.2020.MULTi.COMPLETE.BLURAY-ORCA
Формат: MKV
Кодек: MPEG-4 AVC
Видео: 720x302 (2.40:1), 23.976 fps, MPEG-4 AVC ~ 1648 Kbps avg, 0.316 bit/pixel
Аудио: AC3, 48 kHz, 2 ch, ~192.00 kbps avg | русский | Blu-ray EUR
Субтитры: Русские (форсированные (на песни), полные)
Общее
Уникальный идентификатор : 20236188733785505013571917810179395124 (0xF3959229AA75F1BC65994397F2A4E34)
Полное имя : E:TorrentsFilesThe.High.Note.2020.Lic.BDRip.1.46Gb.x264.mkv
Формат : Matroska
Версия формата : Version 4
Размер файла : 1,46 Гбайт
Продолжительность : 1 ч. 53 м.
Общий поток : 1 839 Кбит/сек
Название фильма : Ассистент звезды / The High Note (2020)
Дата кодирования : UTC 2020-10-28 05:44:07
Программа кодирования : mkvmerge v47.0.0 ('Black Flag') 64-bit
Библиотека кодирования : libebml v1.3.10 + libmatroska v1.5.2
Обложка : Yes
Attachments : cover.jpg

Видео
Идентификатор : 1
Формат : AVC
Формат/Информация : Advanced Video Codec
Профиль формата : [email protected]
Настройки формата : CABAC / 12 Ref Frames
Параметр CABAC формата : Да
Параметр RefFrames формата : 12 кадров
Идентификатор кодека : V_MPEG4/ISO/AVC
Продолжительность : 1 ч. 53 м.
Битрейт : 1 648 Кбит/сек
Ширина : 720 пикселей
Высота : 302 пикселя
Соотношение сторон : 2,40:1
Режим частоты кадров : Постоянный
Частота кадров : 23,976 кадра/сек
Цветовое пространство : YUV
Субдискретизация насыщенности : 4:2:0
Битовая глубина : 8 бит
Тип развёртки : Прогрессивная
Бит/(Пиксели*Кадры) : 0.316
Размер потока : 1,30 Гбайт (89%)
Заголовок : #stillet
Библиотека кодирования : x264 core 152 r2851bm ba24899
Настройки программы : cabac=1 / ref=12 / deblock=1:-2:-2 / analyse=0x3:0x113 / me=umh / subme=10 / psy=1 / psy_rd=1.00:0.15 / mixed_ref=1 / me_range=32 / chroma_me=1 / trellis=2 / 8x8dct=1 / cqm=0 / deadzone=21,11 / fast_pskip=0 / chroma_qp_offset=-3 / threads=8 / lookahead_threads=3 / sliced_threads=0 / nr=0 / decimate=0 / interlaced=0 / bluray_compat=0 / constrained_intra=0 / bframes=11 / b_pyramid=2 / b_adapt=2 / b_bias=0 / direct=3 / weightb=1 / open_gop=0 / weightp=2 / keyint=240 / keyint_min=23 / scenecut=40 / intra_refresh=0 / rc=2pass / mbtree=0 / bitrate=1648 / ratetol=1.0 / qcomp=0.60 / qpmin=0 / qpmax=69 / qpstep=4 / cplxblur=20.0 / qblur=0.5 / ip_ratio=1.40 / pb_ratio=1.30 / aq=1:1.00
Язык : English
Default : Да
Forced : Нет

Аудио
Идентификатор : 2
Формат : AC-3
Формат/Информация : Audio Coding 3
Коммерческое название : Dolby Digital
Идентификатор кодека : A_AC3
Продолжительность : 1 ч. 53 м.
Вид битрейта : Постоянный
Битрейт : 192 Кбит/сек
Каналы : 2 канала
Channel layout : L R
Частота : 48,0 КГц
Частота кадров : 31,250 кадров/сек (1536 SPF)
Метод сжатия : С потерями
Размер потока : 156 Мбайт (10%)
Заголовок : Blu-ray EUR
Язык : Russian
Service kind : Complete Main
Default : Да
Forced : Да

Текст #1
Идентификатор : 3
Формат : UTF-8
Идентификатор кодека : S_TEXT/UTF8
Идентификатор кодека/Информация : UTF-8 Plain Text
Продолжительность : 1 ч. 51 м.
Битрейт : 7 бит/сек
Count of elements : 153
Размер потока : 6,37 Кбайт (0%)
Заголовок : Forced (на песни) | Blu-ray
Язык : Russian
Default : Да
Forced : Да

Текст #2
Идентификатор : 4
Формат : UTF-8
Идентификатор кодека : S_TEXT/UTF8
Идентификатор кодека/Информация : UTF-8 Plain Text
Продолжительность : 1 ч. 52 м.
Битрейт : 112 бит/сек
Count of elements : 1970
Размер потока : 92,8 Кбайт (0%)
Заголовок : Full | Blu-ray
Язык : Russian
Default : Нет
Forced : Нет

Меню
00:00:00.000 : :eng: 01
00:05:50.600 : :eng: 02
00:11:20.513 : :eng: 03
00:18:02.998 : :eng: 04
00:24:50.779 : :eng: 05
00:30:51.974 : :eng: 06
00:37:18.152 : :eng: 07
00:40:48.653 : :eng: 08
00:45:54.960 : :eng: 09
00:51:03.268 : :eng: 10
00:56:03.025 : :eng: 11
01:02:18.608 : :eng: 12
01:07:35.342 : :eng: 13
01:12:58.707 : :eng: 14
01:19:20.255 : :eng: 15
01:24:19.179 : :eng: 16
01:29:03.378 : :eng: 17
01:33:42.949 : :eng: 18
01:42:14.002 : :eng: 19
01:46:39.768 : :eng: 20
01:53:22.545 : :eng: 21



Download
Для скачивания .torrent файлов необходима регистрация
Сайт не распространяет и не хранит электронные версии произведений, а лишь предоставляет доступ к создаваемому пользователями каталогу ссылок на торрент-файлы, которые содержат только списки хеш-сумм

Страница 1 из 1

Ответить на тему

   Похожие торренты   Торрент 




tracker_crontracker_cron