Регистрация ·  Логин: Пароль: Запомнить   · Забыли пароль?




Ответить на тему
Статистика раздачи
Размер: 5.91 ГБ | Зарегистрирован: 15 ноя 2020, 16:24 | .torrent скачан: 0 раз(а), DHT: [ 0 ] раз(а)
Сидеров: [ 0  | 0 байт/сек ]   Личеров: [ 0  | 0 байт/сек ]   DHT: [ 0 / 0 ]
Автор Сообщение

Модератор

С нами: 2 года 5 месяцев
Сообщения: 3401
Россия

Сообщение 15 ноя 2020, 16:24 

[Цитировать]


Информация о фильме
Название: Любовь и монстры
Оригинальное название: Love and Monsters
Год выхода: 2020
Жанр: комедия, фантастика, боевик, приключения
Режиссер: Майкл Мэтьюз
В ролях: Дилан О'Брайен, Джессика Хенвик, Майкл Рукер, Эллен Холлман, Мелани Занетти, Ариана Гринблатт, Амали Голден, Тэнди Райт, Тэсним Рок, Ларри Седар

О фильме:
Семь лет назад человечество взорвало подлетавший к Земле астероид, но после этого столкнулось с последствиями - некоторые земные обитатели мутировали в гигантских монстров. Через год население Земли сократилось на 95%. У Джоэла погибли родители, и с тех пор он в компании таких же выживших обитает в подземном бункере. Недавно он поймал радиосигнал другой колонии, где живет его подростковая любовь Эйми, и теперь решил до неё добраться. И это будет непросто, ведь у Джоэла нет никаких навыков выживания, и более того - при виде монстров он впадает в оцепенение.



Страна: Канада, США
Продолжительность: 01:48:52
Перевод: Профессиональный (многоголосый, закадровый) | Flarrow Films

Роли озвучивали: Ахилл Намазов, Маргарита Щелкунова, Андрей Маслов, Лилия Сафина, Рина Чернышова, Рута Новикова, Алексей Ядренников и Семён Евсиков

Файл
Формат: MKV
Кодек: MPEG-4 AVC
Качество: WEB-DL 1080p
Видео: 1920х800, ~ 7 443 kb/s, 23.976 FPS, 8 bits
Звук: AC-3, 320 kb/s, 2 channels, 48.0 kHz
Субтитры: русские (отключаемые UTF-8)

General
Unique ID : 11338624678033735715145393280804656865 (0x887BD5BA3BCD25B6B16BD1A09C316E1)
Complete name : C:FlarrowLove.and.Monsters.2020.1080p.Flarrow.Films.mkv
Format : Matroska
Format version : Version 4
File size : 5.91 GiB
Duration : 1 h 48 min
Overall bit rate : 7 764 kb/s
Encoded date : UTC 2020-10-26 11:17:22
Writing application : mkvmerge v32.0.0 ('Astral Progressions') 64-bit
Writing library : libebml v1.3.7 + libmatroska v1.5.0

Video
ID : 1
Format : AVC
Format/Info : Advanced Video Codec
Format profile : [email protected]
Format settings : CABAC / 4 Ref Frames
Format settings, CABAC : Yes
Format settings, Reference : 4 frames
Codec ID : V_MPEG4/ISO/AVC
Duration : 1 h 48 min
Bit rate mode : Constant
Bit rate : 7 443 kb/s
Nominal bit rate : 10 000 kb/s
Width : 1 920 pixels
Height : 800 pixels
Display aspect ratio : 2.40:1
Frame rate mode : Constant
Frame rate : 23.976 (24000/1001) FPS
Color space : YUV
Chroma subsampling : 4:2:0
Bit depth : 8 bits
Scan type : Progressive
Bits/(Pixel*Frame) : 0.202
Stream size : 5.66 GiB (96%)
Default : Yes
Forced : No
Color range : Limited
Color primaries : BT.709
Transfer characteristics : BT.709
Matrix coefficients : BT.709

Audio
ID : 2
Format : AC-3
Format/Info : Audio Coding 3
Commercial name : Dolby Digital
Codec ID : A_AC3
Duration : 1 h 48 min
Bit rate mode : Constant
Bit rate : 320 kb/s
Channel(s) : 2 channels
Channel layout : L R
Sampling rate : 48.0 kHz
Frame rate : 31.250 FPS (1536 SPF)
Compression mode : Lossy
Stream size : 249 MiB (4%)
Language : Russian
Service kind : Complete Main
Default : Yes
Forced : No

Text
ID : 3
Format : UTF-8
Codec ID : S_TEXT/UTF8
Codec ID/Info : UTF-8 Plain Text
Duration : 1 h 41 min
Bit rate : 90 b/s
Count of elements : 1477
Stream size : 67.3 KiB (0%)
Language : Russian
Default : Yes
Forced : No









Релиз от: Flarrow Films
Примечание: Без интро Flarrow Films


Download
Для скачивания .torrent файлов необходима регистрация
Сайт не распространяет и не хранит электронные версии произведений, а лишь предоставляет доступ к создаваемому пользователями каталогу ссылок на торрент-файлы, которые содержат только списки хеш-сумм

Страница 1 из 1

Ответить на тему

   Похожие торренты   Торрент