Регистрация ·  Логин: Пароль: Запомнить   · Забыли пароль?




Ответить на тему
Статистика раздачи
Размер: 1.04 ГБ | Зарегистрирован: 15 ноя 2020, 16:24 | .torrent скачан: 0 раз(а), DHT: [ 461 ] раз(а)
Сидеров: [ 51  | 0 байт/сек ]   Личеров: [ 0  | 0 байт/сек ]   DHT: [ 51 / 0 ]
Автор Сообщение

Модератор

С нами: 2 года 4 месяца
Сообщения: 3361
Россия

Сообщение 15 ноя 2020, 16:24 

[Цитировать]

Информация о фильме
Название: Ненавижу лето
Оригинальное название: Odio l'estate
Год выхода: 2020
Жанр: Комедия
Режиссер: Массимо Венье
В ролях: Альдо, Джакомо Поретти, Джованни, Лучиа Машино, Карлотта Натоли, Мария Ди Биасе, Массимо Раньери, Микеле Плачидо, Роберто Читран, Карло Лука Де Руджиери

О фильме:
В центре сюжета три семейства из Милана, чьи судьбы переплетаются на одном из островов на юго-востоке Италии во время летнего отдыха. Безработный Альдо Бальо вместе с любящей женой Кармен и тремя детьми, включая старшего сына Сальво, недавно судимого за угон скутера, арендует домик на пляже, где, по ошибке туристической фирмы, ему придется ютиться с владельцем убыточного обувного магазина Джованни Сторти, приехавшим сюда с женой Паолой и дочерью Алессией, а также дантистом Джакомо Поретти и его супругой Барбарой, имеющей сына Людовико от предыдущего брака. Изначально полагая, что отпуск безнадежно испорчен, познакомившись поближе, три незнакомые семьи меняют свое мнение на обратное.



Страна: Италия
Студия: Agidi, Medusa Film, Sky Cinema
Продолжительность: 01:45:51
Перевод: Любительский многоголосый | Синема УС
Субтитры: Нет

Файл
Формат: Matroska
Качество: WEB-DLRip-AVC
Видео: 1024x428 at 25.000 fps, [email protected], ~1212 kbps
Аудио: AC3, 2 ch, ~192 kbps - | Русский | -

***Релиз от: -=DoMiNo=-

x264 [info]: frame I:1575 Avg QP:14.41 size: 58814
x264 [info]: frame P:43107 Avg QP:18.17 size: 13209
x264 [info]: frame B:113996 Avg QP:23.11 size: 2626

General
Format : Matroska
Format version : Version 4
File size : 1.04 GiB
Duration : 1 h 45 min
Overall bit rate : 1 405 kb/s
Movie name : Ненавижу лето.(2020).WEB-DLRip-AVC.[-=DoMiNo=-]
Encoded date : UTC 2020-10-26 10:26:35
Writing application : mkvmerge v8.3.0 ('Over the Horizon') 64bit
Writing library : libebml v1.3.1 + libmatroska v1.4.2
Cover : Yes
Attachments : Cover.jpg / Cover 2.jpg

Video
ID : 1
Format : AVC
Format/Info : Advanced Video Codec
Format profile : [email protected]
Format settings : CABAC / 12 Ref Frames
Format settings, CABAC : Yes
Format settings, Reference : 12 frames
Codec ID : V_MPEG4/ISO/AVC
Duration : 1 h 45 min
Bit rate : 1 212 kb/s
Width : 1 024 pixels
Height : 428 pixels
Display aspect ratio : 2.40:1
Frame rate mode : Constant
Frame rate : 25.000 FPS
Color space : YUV
Chroma subsampling : 4:2:0
Bit depth : 8 bits
Scan type : Progressive
Bits/(Pixel*Frame) : 0.111
Stream size : 917 MiB (86%)
Title : -=DoMiNo=-
Writing library : x264 core 161 r3026 1086f45
Encoding settings : cabac=1 / ref=12 / deblock=1:0:0 / analyse=0x3:0x133 / me=umh / subme=10 / psy=1 / psy_rd=1.05:0.15 / mixed_ref=1 / me_range=32 / chroma_me=1 / trellis=2 / 8x8dct=1 / cqm=0 / deadzone=21,11 / fast_pskip=1 / chroma_qp_offset=-3 / threads=6 / lookahead_threads=1 / sliced_threads=0 / nr=0 / decimate=1 / interlaced=0 / bluray_compat=0 / constrained_intra=0 / bframes=3 / b_pyramid=2 / b_adapt=2 / b_bias=0 / direct=1 / weightb=1 / open_gop=0 / weightp=2 / keyint=250 / keyint_min=25 / scenecut=40 / intra_refresh=0 / rc_lookahead=100 / rc=crf / mbtree=1 / crf=18.5 / qcomp=0.60 / qpmin=0 / qpmax=69 / qpstep=4 / vbv_maxrate=50000 / vbv_bufsize=62500 / crf_max=0.0 / nal_hrd=none / filler=0 / ip_ratio=1.40 / aq=1:1.00
Language : English
Default : Yes
Forced : No
Color range : Limited
Color primaries : BT.709
Transfer characteristics : BT.709
Matrix coefficients : BT.709

Audio
ID : 2
Format : AC-3
Format/Info : Audio Coding 3
Commercial name : Dolby Digital
Codec ID : A_AC3
Duration : 1 h 45 min
Bit rate mode : Constant
Bit rate : 192 kb/s
Channel(s) : 2 channels
Channel layout : L R
Sampling rate : 48.0 kHz
Frame rate : 31.250 FPS (1536 SPF)
Compression mode : Lossy
Stream size : 145 MiB (14%)
Title : MVO [Синема УС]
Language : Russian
Service kind : Complete Main
Default : Yes
Forced : No

Download
Для скачивания .torrent файлов необходима регистрация
Сайт не распространяет и не хранит электронные версии произведений, а лишь предоставляет доступ к создаваемому пользователями каталогу ссылок на торрент-файлы, которые содержат только списки хеш-сумм

Страница 1 из 1

Ответить на тему

   Похожие торренты   Торрент 




tracker_crontracker_cron