Регистрация ·  Логин: Пароль: Запомнить   · Забыли пароль?




Ответить на тему
Статистика раздачи
Размер: 7.84 ГБ | Зарегистрирован: 15 ноя 2020, 16:24 | .torrent скачан: 0 раз(а), DHT: [ 2756 ] раз(а)
Сидеров: [ 102  | 0 байт/сек ]   Личеров: [ 12  | 0 байт/сек ]   DHT: [ 102 / 12 ]
Автор Сообщение

Модератор

С нами: 2 года 4 месяца
Сообщения: 3361
Россия

Сообщение 15 ноя 2020, 16:24 

[Цитировать]


Информация о фильме
Название: Последняя капля
Оригинальное название: On the Rocks
Год выхода: 2020
Жанр: драма, комедия
Режиссер: София Коппола
В ролях: Билл Мюррей, Рашида Джонс, Марлон Уайанс, Джессика Хенвик, Дженни Слейт, Лияна Мускат, Александра Мари Реймер, Анна Шанель Реймер, Барбара Бэйн, Джулиана Кэнвилд и др.

О фильме: Лаура думает, что она счастлива замужем, но, когда её муж Дин начинает проводить вечера в офисе с новой коллегой, в её голову закрадываются сомнения. Лаура обращается за помощью к своему харизматичному и импульсивному отцу Феликсу, который предлагает начать слежку за Дином. Когда отец и дочь отправляются в приключение по ночному Нью-Йорку, неожиданно для себя они обнаруживают, что в основе этого путешествия лежат их собственные отношения.



Страна: США
Студия: A24, American Zoetrope
Продолжительность: 01:36:49
Перевод: Профессиональный (дублированный) Apple TV+

Файл
Качество: WEB-DL 1080p
Формат: Matroska
Видео: 1920x1038 at 23.976 fps, MPEG-4 AVC, ~10000 kbps avg
Аудио#1: Russian: 48 kHz, E-AC3 JOC, 3/2 (L,C,R,l,r) + LFE ch, ~768 kbps avg |Дубляж, Apple TV+|
Аудио#2: English: 48 kHz, E-AC3 JOC, 3/2 (L,C,R,l,r) + LFE ch, ~768 kbps avg
Субтитры: Russian (Forced, Full), English и другие
***Примечание: Без рекламы
***Релиз: [email protected]

General
Unique ID : 211443688638354663262156396669458163031 (0x9F1292B9F5D9DE57993AABAEE9D3A557)
Complete name : On.The.Rocks.2020.1080p.ATVP.WEB-DL.DDP5.1.H.264-EniaHD.mkv
Format : Matroska
Format version : Version 4
File size : 7.84 GiB
Duration : 1 h 36 min
Overall bit rate : 11.6 Mb/s
Movie name : On the Rocks (2020) - EniaHD
Encoded date : UTC 2020-10-26 08:47:02
Writing application : mkvmerge v51.0.0 ('I Wish') 64-bit
Writing library : libebml v1.4.0 + libmatroska v1.6.2

Video
ID : 1
Format : AVC
Format/Info : Advanced Video Codec
Format profile : [email protected]
Format settings : CABAC / 4 Ref Frames
Format settings, CABAC : Yes
Format settings, Reference fra : 4 frames
Codec ID : V_MPEG4/ISO/AVC
Duration : 1 h 36 min
Bit rate : 10.1 Mb/s
Width : 1 920 pixels
Height : 1 038 pixels
Display aspect ratio : 1.85:1
Frame rate mode : Constant
Frame rate : 23.976 (24000/1001) FPS
Color space : YUV
Chroma subsampling : 4:2:0
Bit depth : 8 bits
Scan type : Progressive
Bits/(Pixel*Frame) : 0.210
Stream size : 6.80 GiB (87%)
Default : Yes
Forced : No
Color range : Limited
Color primaries : BT.709
Transfer characteristics : BT.709
Matrix coefficients : BT.709

Audio #1
ID : 2
Format : E-AC-3 JOC
Format/Info : Enhanced AC-3 with Joint Object Coding
Commercial name : Dolby Digital Plus with Dolby Atmos
Codec ID : A_EAC3
Duration : 1 h 36 min
Bit rate mode : Constant
Bit rate : 768 kb/s
Channel(s) : 6 channels
Channel layout : L R C LFE Ls Rs
Sampling rate : 48.0 kHz
Frame rate : 31.250 FPS (1536 SPF)
Compression mode : Lossy
Stream size : 532 MiB (7%)
Language : Russian
Service kind : Complete Main
Default : Yes
Forced : No
Complexity index : 16
Number of dynamic objects : 15
Bed channel count : 1 channel
Bed channel configuration : LFE

Audio #2
ID : 3
Format : E-AC-3 JOC
Format/Info : Enhanced AC-3 with Joint Object Coding
Commercial name : Dolby Digital Plus with Dolby Atmos
Codec ID : A_EAC3
Duration : 1 h 36 min
Bit rate mode : Constant
Bit rate : 768 kb/s
Channel(s) : 6 channels
Channel layout : L R C LFE Ls Rs
Sampling rate : 48.0 kHz
Frame rate : 31.250 FPS (1536 SPF)
Compression mode : Lossy
Stream size : 532 MiB (7%)
Language : English
Service kind : Complete Main
Default : No
Forced : No
Complexity index : 16
Number of dynamic objects : 15
Bed channel count : 1 channel
Bed channel configuration : LFE

Text #1
ID : 4
Format : UTF-8
Codec ID : S_TEXT/UTF8
Codec ID/Info : UTF-8 Plain Text
Duration : 1 h 26 min
Bit rate : 3 b/s
Count of elements : 50
Stream size : 2.30 KiB (0%)
Title : Forced
Language : Russian
Default : Yes
Forced : No

Text #2
ID : 5
Format : UTF-8
Codec ID : S_TEXT/UTF8
Codec ID/Info : UTF-8 Plain Text
Duration : 1 h 36 min
Bit rate : 96 b/s
Count of elements : 1409
Stream size : 68.0 KiB (0%)
Language : Russian
Default : No
Forced : No

Text #3
ID : 6
Format : UTF-8
Codec ID : S_TEXT/UTF8
Codec ID/Info : UTF-8 Plain Text
Duration : 1 h 29 min
Bit rate : 68 b/s
Count of elements : 1397
Stream size : 45.0 KiB (0%)
Language : English
Default : No
Forced : No

Text #4
ID : 7
Format : UTF-8
Codec ID : S_TEXT/UTF8
Codec ID/Info : UTF-8 Plain Text
Duration : 1 h 29 min
Bit rate : 77 b/s
Count of elements : 1521
Stream size : 50.5 KiB (0%)
Title : SDH
Language : English
Default : No
Forced : No

Text #5
ID : 8
Format : UTF-8
Codec ID : S_TEXT/UTF8
Codec ID/Info : UTF-8 Plain Text
Duration : 1 h 36 min
Bit rate : 59 b/s
Count of elements : 1265
Stream size : 42.1 KiB (0%)
Language : Estonian
Default : No
Forced : No

Text #6
ID : 9
Format : UTF-8
Codec ID : S_TEXT/UTF8
Codec ID/Info : UTF-8 Plain Text
Duration : 1 h 36 min
Bit rate : 66 b/s
Count of elements : 1259
Stream size : 47.0 KiB (0%)
Language : German
Default : No
Forced : No

Text #7
ID : 10
Format : UTF-8
Codec ID : S_TEXT/UTF8
Codec ID/Info : UTF-8 Plain Text
Duration : 1 h 36 min
Bit rate : 62 b/s
Count of elements : 1408
Stream size : 43.8 KiB (0%)
Language : Lithuanian
Default : No
Forced : No

Text #8
ID : 11
Format : UTF-8
Codec ID : S_TEXT/UTF8
Codec ID/Info : UTF-8 Plain Text
Duration : 1 h 36 min
Bit rate : 64 b/s
Count of elements : 1401
Stream size : 45.7 KiB (0%)
Language : Latvian
Default : No
Forced : No

Text #9
ID : 12
Format : UTF-8
Codec ID : S_TEXT/UTF8
Codec ID/Info : UTF-8 Plain Text
Duration : 1 h 36 min
Bit rate : 91 b/s
Count of elements : 1409
Stream size : 64.4 KiB (0%)
Language : Ukrainian
Default : No
Forced : No

Download
Для скачивания .torrent файлов необходима регистрация
Сайт не распространяет и не хранит электронные версии произведений, а лишь предоставляет доступ к создаваемому пользователями каталогу ссылок на торрент-файлы, которые содержат только списки хеш-сумм

Страница 1 из 1

Ответить на тему

   Похожие торренты   Торрент 




tracker_crontracker_cron