Регистрация ·  Логин: Пароль: Запомнить   · Забыли пароль?




Ответить на тему
Статистика раздачи
Размер: 1.45 ГБ | Зарегистрирован: 15 ноя 2020, 16:19 | .torrent скачан: 0 раз(а), DHT: [ 510 ] раз(а)
Сидеров: [ 13  | 0 байт/сек ]   Личеров: [ 2  | 0 байт/сек ]   DHT: [ 13 / 2 ]
Автор Сообщение

Модератор

С нами: 2 года 5 месяцев
Сообщения: 3401
Россия

Сообщение 15 ноя 2020, 16:19 

[Цитировать]

В тылу врага / Вражеские линии / Enemy Lines

Информация о фильме:
Название: В тылу врага / Вражеские линии
Оригинальное название: Enemy Lines
Год выхода: 2020
Жанр: Военный, история, реальные события
Режиссер: Андерс Банке
В ролях: Эд Вествик, Джон Ханна, Том Уисдом, Кори Джонсон, Скотт Хейнинг, Павел Делонг, Гари Грант, Владимир Епифанцев, Жан-Марк Биркхольц, Даниэль Джиллингс
Описание: 1943 год, оккупированная Польша. Подразделение спецназа американо-британских союзников отправляется во вражеский тыл, чтобы вытащить польского ученого, доктора Фабиана, работающего в немецкой лаборатории.

Страна: Великобритания
Студия: Gaia Media, Happy Hour Films, Principal Film Finance
Продолжительность: 01:32:20
Перевод: Дублированный - iTunes

Информация о файле:
Кодек: AVC
Формат: MKV
Качество: HDRip-AVC
Видео: MPEG-4 AVC, 1024x428 (2.40:1), 23.976 fps, 1417 kbps, 0.135
Аудио RU: AC3, 6 ch, 48 kHz, 384 kbps
Аудио EN: AC3, 6 ch, 48 kHz, 448 kbps
Субтитры: Английские
Навигация по главам: Да


x264 info: frame I:1268 Avg QP:14.89 size: 59112
x264 info: frame P:31617 Avg QP:18.14 size: 15772
x264 info: frame B:99963 Avg QP:19.98 size: 4063
General
Unique ID : 92761733225519409317786217131262071439 (0x45C9428D7975AF45E2A63F643CA7D28F)
Complete name : D:uTorrentРипы_от_wolf1245_MediaBitEnemy Lines (2020) HDRip-AVC from wolf1245 & MediaBit.mkv
Format : Matroska
Format version : Version 4
File size : 1.45 GiB
Duration : 1 h 32 min
Overall bit rate : 2 249 kb/s
Movie name : Enemy Lines (2020) HDRip-AVC from wolf1245 & MediaBit
Encoded date : UTC 2020-11-09 18:01:58
Writing application : mkvmerge v51.0.0 ('I Wish') 64-bit
Writing library : libebml v1.4.0 + libmatroska v1.6.2
Video
ID : 1
Format : AVC
Format/Info : Advanced Video Codec
Format profile : [email protected]
Format settings : CABAC / 12 Ref Frames
Format settings, CABAC : Yes
Format settings, Reference frames : 12 frames
Codec ID : V_MPEG4/ISO/AVC
Duration : 1 h 32 min
Bit rate : 1 417 kb/s
Width : 1 024 pixels
Height : 428 pixels
Display aspect ratio : 2.40:1
Frame rate mode : Constant
Frame rate : 23.976 (24000/1001) FPS
Color space : YUV
Chroma subsampling : 4:2:0
Bit depth : 8 bits
Scan type : Progressive
Bits/(Pixel*Frame) : 0.135
Stream size : 934 MiB (63%)
Title : wolf1245 & MediaBit
Writing library : x264 core 157 r2958 57baac4
Encoding settings : cabac=1 / ref=12 / deblock=1:-3:-3 / analyse=0x3:0x133 / me=umh / subme=11 / psy=1 / psy_rd=1.03:0.03 / mixed_ref=1 / me_range=48 / chroma_me=1 / trellis=2 / 8x8dct=1 / cqm=0 / deadzone=21,11 / fast_pskip=0 / chroma_qp_offset=-3 / threads=10 / lookahead_threads=2 / sliced_threads=0 / nr=0 / decimate=0 / interlaced=0 / bluray_compat=0 / constrained_intra=0 / bframes=12 / b_pyramid=2 / b_adapt=2 / b_bias=0 / direct=3 / weightb=1 / open_gop=0 / weightp=2 / keyint=240 / keyint_min=24 / scenecut=40 / intra_refresh=0 / rc_lookahead=60 / rc=2pass / mbtree=0 / bitrate=1417 / ratetol=1.0 / qcomp=0.60 / qpmin=0 / qpmax=69 / qpstep=4 / cplxblur=20.0 / qblur=0.5 / vbv_maxrate=50000 / vbv_bufsize=62500 / nal_hrd=none / filler=0 / ip_ratio=1.40 / pb_ratio=1.30 / aq=2:0.80
Language : English
Default : Yes
Forced : No
Color range : Limited
Color primaries : BT.709
Transfer characteristics : BT.709
Matrix coefficients : BT.709
Audio #1
ID : 2
Format : AC-3
Format/Info : Audio Coding 3
Commercial name : Dolby Digital
Codec ID : A_AC3
Duration : 1 h 32 min
Bit rate mode : Constant
Bit rate : 384 kb/s
Channel(s) : 6 channels
Channel layout : L R C LFE Ls Rs
Sampling rate : 48.0 kHz
Frame rate : 31.250 FPS (1536 SPF)
Compression mode : Lossy
Stream size : 254 MiB (17%)
Title : DUB | iTunes
Language : Russian
Service kind : Complete Main
Default : Yes
Forced : No
Audio #2
ID : 3
Format : AC-3
Format/Info : Audio Coding 3
Commercial name : Dolby Digital
Codec ID : A_AC3
Duration : 1 h 32 min
Bit rate mode : Constant
Bit rate : 448 kb/s
Channel(s) : 6 channels
Channel layout : L R C LFE Ls Rs
Sampling rate : 48.0 kHz
Frame rate : 31.250 FPS (1536 SPF)
Compression mode : Lossy
Stream size : 296 MiB (20%)
Title : Original
Language : English
Service kind : Complete Main
Default : No
Forced : No
Text
ID : 4
Format : UTF-8
Codec ID : S_TEXT/UTF8
Codec ID/Info : UTF-8 Plain Text
Duration : 1 h 26 min
Bit rate : 43 b/s
Count of elements : 1009
Stream size : 27.9 KiB (0%)
Title : Full
Language : English
Default : No
Forced : No
Menu
00:00:00.000 : :Глава 01
00:05:36.836 : :Глава 02
00:10:39.389 : :Глава 03
00:17:13.406 : :Глава 04
00:25:36.869 : :Глава 05
00:32:54.306 : :Глава 06
00:37:29.122 : :Глава 07
00:42:33.926 : :Глава 08
00:46:46.220 : :Глава 09
00:54:46.450 : :Глава 10
01:00:03.308 : :Глава 11
01:07:50.066 : :Глава 12
01:10:31.060 : :Глава 13
01:15:10.798 : :Глава 14
01:24:25.560 : :Глава 15
01:28:49.699 : :Глава 16

Релиз от: & &


Download
Для скачивания .torrent файлов необходима регистрация
Сайт не распространяет и не хранит электронные версии произведений, а лишь предоставляет доступ к создаваемому пользователями каталогу ссылок на торрент-файлы, которые содержат только списки хеш-сумм

Страница 1 из 1

Ответить на тему

   Похожие торренты   Торрент 




cron