Регистрация ·  Логин: Пароль: Запомнить   · Забыли пароль?




Ответить на тему
Статистика раздачи
Размер: 2.81 ГБ | Зарегистрирован: 15 ноя 2020, 16:18 | .torrent скачан: 0 раз(а), DHT: [ 751 ] раз(а)
Сидеров: [ 34  | 0 байт/сек ]   Личеров: [ 1  | 0 байт/сек ]   DHT: [ 34 / 0 ]
Автор Сообщение

Модератор

С нами: 2 года 4 месяца
Сообщения: 3361
Россия

Сообщение 15 ноя 2020, 16:18 

[Цитировать]



Название: Мой создатель
Оригинальное название: Archive
Год выпуска: 2020
Жанр: Фантастика, Драма
Выпущено: Великобритания, Венгрия, США, Independent, Hero Squared, Head Gear Films
Режиссер: Гэвин Ротери
В ролях: Рона Митра, Тео Джеймс, Тоби Джонс, Стэйси Мартин, Питер Фердинандо, Ричард Гловер, Ханс Петерсон, Джереми Вилер, Тимея Мадай Кинга
О фильме: 2046-ой год. Время невероятных технологических открытий, могущественных корпораций и торжества искусственного интеллекта. Молодой ученый в секретной лаборатории занимается поиском вечной жизни для сильных мира сего. Но его истинная цель другая. Он пытается воскресить свою единственную любовь, погибшую несколько лет назад. Когда объект перестает выходить на связь, корпорация отправляет туда команду зачистки.

Перевод: Дублированный | iTunes
Продолжительность: 01:49:01
Формат: MKV
Качество: BDRip-AVC
Видео: MPEG-4 AVC, 1024x426, 3300 kbps, 24.000 fps
Аудио : 48 kHz, AC3, 5.1, 384 Kbps | iTunes | RUS |
Субтитры: Русские (форсированные, полные), английские
x264 [info]: frame I:1110 Avg QP:16.45 size: 69351
x264 [info]: frame P:28965 Avg QP:19.07 size: 29549
x264 [info]: frame B:126926 Avg QP:20.21 size: 13895
--------------------------------------------------------------------------------
General
Unique ID : 198270911431391777045767885368111430970 (0x952996AABB71BF4E87B133D2E1B47D3A)
Complete name : F:Archive.2020.BDRip.AVC.ExKinoRay.mkv
Format : Matroska
Format version : Version 2
File size : 2.81 GiB
Duration : 1 h 49 min
Overall bit rate : 3 684 kb/s
Movie name : Archive 2020 from ExKinoRay
Encoded date : UTC 2020-11-09 01:55:37
Writing application : mkvmerge v5.6.0 ('Kenya Kane') built on May 27 2012 16:44:04
Writing library : libebml v1.2.3 + libmatroska v1.3.0
Cover : Yes
Attachments : cover.jpg

Video
ID : 1
Format : AVC
Format/Info : Advanced Video Codec
Format profile : [email protected]
Format settings, CABAC : Yes
Format settings, ReFrames : 11 frames
Codec ID : V_MPEG4/ISO/AVC
Duration : 1 h 49 min
Bit rate : 3 300 kb/s
Width : 1 024 pixels
Height : 426 pixels
Display aspect ratio : 2.40:1
Frame rate mode : Constant
Frame rate : 24.000 FPS
Color space : YUV
Chroma subsampling : 4:2:0
Bit depth : 8 bits
Scan type : Progressive
Bits/(Pixel*Frame) : 0.315
Stream size : 2.46 GiB (88%)
Title : Enigma
Writing library : x264 core 152 r2851 ba24899
Encoding settings : cabac=1 / ref=11 / deblock=1:-2:-2 / analyse=0x3:0x113 / me=umh / subme=10 / psy=1 / psy_rd=0.98:0.08 / mixed_ref=1 / me_range=32 / chroma_me=1 / trellis=2 / 8x8dct=1 / cqm=0 / deadzone=21,11 / fast_pskip=0 / chroma_qp_offset=-3 / threads=12 / lookahead_threads=3 / sliced_threads=0 / nr=0 / decimate=0 / interlaced=0 / bluray_compat=0 / constrained_intra=0 / bframes=16 / b_pyramid=2 / b_adapt=2 / b_bias=0 / direct=3 / weightb=1 / open_gop=0 / weightp=2 / keyint=240 / keyint_min=24 / scenecut=40 / intra_refresh=0 / rc=2pass / mbtree=0 / bitrate=3300 / ratetol=1.0 / qcomp=0.60 / qpmin=0 / qpmax=51 / qpstep=4 / cplxblur=20.0 / qblur=0.5 / ip_ratio=1.30 / pb_ratio=1.20 / aq=3:0.80
Language : English
Default : Yes
Forced : No

Audio
ID : 2
Format : AC-3
Format/Info : Audio Coding 3
Mode extension : CM (complete main)
Format settings, Endianness : Big
Codec ID : A_AC3
Duration : 1 h 49 min
Bit rate mode : Constant
Bit rate : 384 kb/s
Channel(s) : 6 channels
Channel positions : Front: L C R, Side: L R, LFE
Sampling rate : 48.0 kHz
Frame rate : 31.250 FPS (1536 spf)
Compression mode : Lossy
Stream size : 299 MiB (10%)
Title : iTunes
Language : Russian
Default : Yes
Forced : No

Text #1
ID : 3
Format : UTF-8
Codec ID : S_TEXT/UTF8
Codec ID/Info : UTF-8 Plain Text
Title : Forced
Language : Russian
Default : Yes
Forced : No

Text #2
ID : 4
Format : UTF-8
Codec ID : S_TEXT/UTF8
Codec ID/Info : UTF-8 Plain Text
Title : Full (Focs)
Language : Russian
Default : No
Forced : No

Text #3
ID : 5
Format : UTF-8
Codec ID : S_TEXT/UTF8
Codec ID/Info : UTF-8 Plain Text
Language : English
Default : No
Forced : No

Text #4
ID : 6
Format : UTF-8
Codec ID : S_TEXT/UTF8
Codec ID/Info : UTF-8 Plain Text
Title : SDH
Language : English
Default : No
Forced : No

Menu
00:00:00.000 : en:Глава 01
00:03:24.958 : en:Глава 02
00:12:26.083 : en:Глава 03
00:19:48.292 : en:Глава 04
00:29:07.833 : en:Глава 05
00:35:15.208 : en:Глава 06
00:41:08.625 : en:Глава 07
00:50:10.292 : en:Глава 08
00:58:53.417 : en:Глава 09
01:08:06.000 : en:Глава 10
01:14:51.833 : en:Глава 11
01:19:28.917 : en:Глава 12
01:25:47.375 : en:Глава 13
01:34:37.292 : en:Глава 14
01:39:38.625 : en:Глава 15
01:43:30.292 : en:Глава 16




Релиз от:

Автор релиза:

Download
Для скачивания .torrent файлов необходима регистрация
Сайт не распространяет и не хранит электронные версии произведений, а лишь предоставляет доступ к создаваемому пользователями каталогу ссылок на торрент-файлы, которые содержат только списки хеш-сумм

Страница 1 из 1

Ответить на тему

   Похожие торренты   Торрент 




tracker_crontracker_cron