Регистрация ·  Логин: Пароль: Запомнить   · Забыли пароль?




Ответить на тему
Статистика раздачи
Размер: 4.99 ГБ | Зарегистрирован: 15 ноя 2020, 16:17 | .torrent скачан: 0 раз(а), DHT: [ 7790 ] раз(а)
Сидеров: [ 425  | 0 байт/сек ]   Личеров: [ 24  | 0 байт/сек ]   DHT: [ 425 / 24 ]
Автор Сообщение

Модератор

С нами: 2 года 5 месяцев
Сообщения: 3401
Россия

Сообщение 15 ноя 2020, 16:17 

[Цитировать]


Информация о фильме
Название: Неистовый
Оригинальное название: Unhinged
Год выхода: 2020
Жанр: Боевик, триллер
Режиссер: Деррик Борте
В ролях: Расселл Кроу, Джимми Симпсон, Карен Писториус, Гэбриел Бейтман, Остин П. МакКензи, Энн Мари Лейтон, Майкл Пападжон, Люси Фауст, Сильвия Грэйс Крим, Стивен Луис Граш



О фильме: Нет ничего опаснее человека, доведенного до точки кипения. Особенно, если жизнь обошлась с ним несправедливо и теперь ему нечего терять. Именно таким оказывается водитель автомобиля, с которым повздорила на дороге обычная мать-одиночка, не подозревая, что нажила себе безжалостного врага. Теперь он не остановится пока не преподаст страшный урок своей жертве и всем, кто ей дорог. У женщины и ее сына не остается другого выбора, кроме как попытаться выжить в этой набирающей скорость смертельной игре.

Страна: США
Студия: Burek Films, Ingenious, Solstice Studios
Продолжительность: 01:30:07
Перевод: Дублированный | iTunes

Качество: BDRip 720p
Видео: MPEG-4 AVC, 1280x536, 6900 Кbit/s, 23.976 fps
Аудио #01: 48 kHz, AC3, 5.1, 384 Kbps | iTunes | RUS |
Аудио #02: 48 kHz, AC3, 5.1, 640 Kbps | Оригинал | ENG |
Субтитры: Русские (Full), английские



General
Unique ID : 12815423050608550776282927146106612486 (0x9A42923A7E8925568937856ABDFEB06)
Complete name : D:Video111Unhinged.2020.BDRip.720p.seleZen.mkv
Format : Matroska
Format version : Version 4
File size : 4.99 GiB
Duration : 1 h 30 min
Overall bit rate : 7 929 kb/s
Movie name : Unhinged 2020 from seleZen
Encoded date : UTC 2020-11-08 11:32:20
Writing application : mkvmerge v40.0.0 ('Old Town Road + Pony') 64-bit
Writing library : libebml v1.3.9 + libmatroska v1.5.2

Video
ID : 1
Format : AVC
Format/Info : Advanced Video Codec
Format profile : [email protected]
Format settings : CABAC / 12 Ref Frames
Format settings, CABAC : Yes
Format settings, Reference : 12 frames
Codec ID : V_MPEG4/ISO/AVC
Duration : 1 h 30 min
Bit rate : 6 900 kb/s
Width : 1 280 pixels
Height : 536 pixels
Display aspect ratio : 2.40:1
Frame rate mode : Constant
Frame rate : 23.976 (24000/1001) FPS
Color space : YUV
Chroma subsampling : 4:2:0
Bit depth : 8 bits
Scan type : Progressive
Bits/(Pixel*Frame) : 0.419
Stream size : 4.35 GiB (87%)
Title : iFT
Writing library : x264 core 161 r3018+53 ~ Encoded by Mocunaman in Portugal
Encoding settings : cabac=1 / ref=12 / deblock=1:-3:-3 / analyse=0x3:0x133 / me=umh / subme=11 / psy=1 / fade_compensate=0.00 / psy_rd=1.00:0.00 / mixed_ref=1 / me_range=32 / chroma_me=1 / trellis=2 / 8x8dct=1 / cqm=0 / deadzone=21,11 / fast_pskip=0 / chroma_qp_offset=-2 / threads=17 / lookahead_threads=2 / sliced_threads=0 / nr=0 / decimate=0 / interlaced=0 / bluray_compat=0 / constrained_intra=0 / fgo=0 / bframes=9 / b_pyramid=2 / b_adapt=2 / b_bias=0 / direct=3 / weightb=1 / open_gop=0 / weightp=2 / keyint=250 / keyint_min=23 / scenecut=40 / intra_refresh=0 / rc=2pass / mbtree=0 / bitrate=6900 / ratetol=1.0 / qcomp=0.65 / qpmin=0:0:0 / qpmax=69:69:69 / qpstep=4 / cplxblur=20.0 / qblur=0.5 / ip_ratio=1.30 / pb_ratio=1.20 / aq=3:0.85 / aq-sensitivity=10.00 / aq-factor=1.00:1.00:1.00 / aq2=0 / aq3=0 / zones=649,6912,b=1.3/698,11160,b=1.3/12936,13776,b=1.5/85442,85637,b=1.3/97324,97509,b=1.3
Language : English
Default : Yes
Forced : No
Color range : Limited
Matrix coefficients : BT.709

Audio #1
ID : 2
Format : AC-3
Format/Info : Audio Coding 3
Commercial name : Dolby Digital
Codec ID : A_AC3
Duration : 1 h 30 min
Bit rate mode : Constant
Bit rate : 384 kb/s
Channel(s) : 6 channels
Channel layout : L R C LFE Ls Rs
Sampling rate : 48.0 kHz
Frame rate : 31.250 FPS (1536 SPF)
Compression mode : Lossy
Stream size : 247 MiB (5%)
Title : iTunes
Language : Russian
Service kind : Complete Main
Default : Yes
Forced : Yes

Audio #2
ID : 3
Format : AC-3
Format/Info : Audio Coding 3
Commercial name : Dolby Digital
Codec ID : A_AC3
Duration : 1 h 30 min
Bit rate mode : Constant
Bit rate : 640 kb/s
Channel(s) : 6 channels
Channel layout : L R C LFE Ls Rs
Sampling rate : 48.0 kHz
Frame rate : 31.250 FPS (1536 SPF)
Compression mode : Lossy
Stream size : 413 MiB (8%)
Title : Original
Language : English
Service kind : Complete Main
Default : No
Forced : No

Text #1
ID : 4
Format : UTF-8
Codec ID : S_TEXT/UTF8
Codec ID/Info : UTF-8 Plain Text
Duration : 1 h 17 min
Bit rate : 90 b/s
Count of elements : 1001
Stream size : 51.3 KiB (0%)
Title : Full
Language : Russian
Default : No
Forced : No

Text #2
ID : 5
Format : UTF-8
Codec ID : S_TEXT/UTF8
Codec ID/Info : UTF-8 Plain Text
Duration : 1 h 17 min
Bit rate : 56 b/s
Count of elements : 986
Stream size : 32.3 KiB (0%)
Title : Full
Language : English
Default : No
Forced : No

Text #3
ID : 6
Format : UTF-8
Codec ID : S_TEXT/UTF8
Codec ID/Info : UTF-8 Plain Text
Duration : 1 h 24 min
Bit rate : 61 b/s
Count of elements : 1228
Stream size : 38.0 KiB (0%)
Title : SDH
Language : English
Default : No
Forced : No

Menu
00:00:00.000 : en:Chapter 01
00:04:55.045 : en:Chapter 02
00:07:47.425 : en:Chapter 03
00:12:03.890 : en:Chapter 04
00:19:14.069 : en:Chapter 05
00:25:58.515 : en:Chapter 06
00:28:19.740 : en:Chapter 07
00:32:44.087 : en:Chapter 08
00:36:04.454 : en:Chapter 09
00:39:43.047 : en:Chapter 10
00:45:20.634 : en:Chapter 11
00:49:30.593 : en:Chapter 12
01:01:47.329 : en:Chapter 13
01:09:41.427 : en:Chapter 14
01:12:52.493 : en:Chapter 15
01:18:56.607 : en:Chapter 16


Релиз: Присоединяйся к:



Download
Для скачивания .torrent файлов необходима регистрация
Сайт не распространяет и не хранит электронные версии произведений, а лишь предоставляет доступ к создаваемому пользователями каталогу ссылок на торрент-файлы, которые содержат только списки хеш-сумм

Страница 1 из 1

Ответить на тему

   Похожие торренты   Торрент 




cron