Регистрация ·  Логин: Пароль: Запомнить   · Забыли пароль?




Ответить на тему
Статистика раздачи
Размер: 21.79 ГБ | Зарегистрирован: 15 ноя 2020, 16:16 | .torrent скачан: 0 раз(а), DHT: [ 0 ] раз(а)
Сидеров: [ 0  | 0 байт/сек ]   Личеров: [ 0  | 0 байт/сек ]   DHT: [ 0 / 0 ]
Автор Сообщение

Модератор

С нами: 2 года 4 месяца
Сообщения: 3361
Россия

Сообщение 15 ноя 2020, 16:16 

[Цитировать]


Информация о фильме
Название: Чудо-детки: Непутевые волшебники
Оригинальное название: Die Wolf-Gäng / The Magic Kids - Three Unlikely Heroes
Год выхода: 2020
Жанр: Фэнтези, приключения, семейный
Режиссер: Тим Трагезер
В ролях: Кристиан Беркель, Арсений Бультман, Буц Бузе, Ширли Феринг, Арвед Фризе, Соня Герхардт, Николь Хеестерс, Грета Хуберт, Рик Каваниан, Торстен Кавур



О фильме: В центре сюжета картины история 13-летнего мальчика вампира Влада, который попадает в одну из самых престижных школ волшебства мира. Городок Краильсфельден и школа оказываются пристанищем самых разнообразных сказочных существ. С появлением Влада и его отца там теперь есть и вампиры. Всё выглядит чудесно, но у маленького Влада есть одна большая проблема. Вампир совершенно не выносит вида крови. Его друзьями в школе становятся два таких же неудачника: страдающая аэрофобией фея и мальчик-оборотень с аллергией на шерсть животных. Вместе трём героям предстоит пережить незабываемые приключения и бросить вызов мэру городка.

Страна: Германия
Студия: Rat Pack Filmproduktion
Продолжительность: 01:36:56
Перевод: Дублированный | iTunes

Качество: BDRemux 1080p
Видео: MPEG-4 AVC, 1920x1080, 29.8 Mbit/s, 23.976 fps
Аудио #01: 48 kHz, AC3, 5.1, 384 Kbps | iTunes | RUS |
Аудио #02: 48 kHz, DTS-HD MA, 5.1, 1954 Kbps | Оригинал | GER |
Субтитры: Английские



General
Unique ID : 125368641011830377459362945525039956308 (0x5E511F3A28A27A99B00B1B5264BF0154)
Complete name : D:Video111Die.Wolf.Gang.2020.BDREMUX.1080p.seleZen.mkv
Format : Matroska
Format version : Version 4
File size : 21.8 GiB
Duration : 1 h 36 min
Overall bit rate mode : Variable
Overall bit rate : 32.2 Mb/s
Movie name : Die Wolf-Gäng 2020 from seleZen
Encoded date : UTC 2020-11-05 21:05:20
Writing application : mkvmerge v40.0.0 ('Old Town Road + Pony') 64-bit
Writing library : libebml v1.3.9 + libmatroska v1.5.2

Video
ID : 1
Format : AVC
Format/Info : Advanced Video Codec
Format profile : [email protected]
Format settings : CABAC / 4 Ref Frames
Format settings, CABAC : Yes
Format settings, Reference : 4 frames
Codec ID : V_MPEG4/ISO/AVC
Duration : 1 h 36 min
Bit rate mode : Variable
Bit rate : 29.8 Mb/s
Maximum bit rate : 33.0 Mb/s
Width : 1 920 pixels
Height : 1 080 pixels
Display aspect ratio : 16:9
Frame rate mode : Constant
Frame rate : 23.976 (24000/1001) FPS
Color space : YUV
Chroma subsampling : 4:2:0
Bit depth : 8 bits
Scan type : Progressive
Bits/(Pixel*Frame) : 0.600
Stream size : 20.2 GiB (93%)
Language : German
Default : Yes
Forced : No

Audio #1
ID : 2
Format : AC-3
Format/Info : Audio Coding 3
Commercial name : Dolby Digital
Codec ID : A_AC3
Duration : 1 h 36 min
Bit rate mode : Constant
Bit rate : 384 kb/s
Channel(s) : 6 channels
Channel layout : L R C LFE Ls Rs
Sampling rate : 48.0 kHz
Frame rate : 31.250 FPS (1536 SPF)
Compression mode : Lossy
Stream size : 266 MiB (1%)
Title : iTunes
Language : Russian
Service kind : Complete Main
Default : Yes
Forced : Yes

Audio #2
ID : 3
Format : DTS XLL
Format/Info : Digital Theater Systems
Commercial name : DTS-HD Master Audio
Codec ID : A_DTS
Duration : 1 h 36 min
Bit rate mode : Variable
Bit rate : 1 954 kb/s
Channel(s) : 6 channels
Channel layout : C L R Ls Rs LFE
Sampling rate : 48.0 kHz
Frame rate : 93.750 FPS (512 SPF)
Bit depth : 16 bits
Compression mode : Lossless
Stream size : 1.32 GiB (6%)
Title : Original
Language : German
Default : No
Forced : No

Text
ID : 4
Format : UTF-8
Codec ID : S_TEXT/UTF8
Codec ID/Info : UTF-8 Plain Text
Duration : 1 h 31 min
Bit rate : 52 b/s
Count of elements : 1268
Stream size : 35.3 KiB (0%)
Title : SDH
Language : English
Default : No
Forced : No

Menu
00:00:00.000 : de:Глава 01
00:02:26.897 : de:Глава 02
00:08:23.169 : de:Глава 03
00:13:00.363 : de:Глава 04
00:17:41.978 : de:Глава 05
00:25:10.968 : de:Глава 06
00:28:22.743 : de:Глава 07
00:34:01.122 : de:Глава 08
00:41:26.567 : de:Глава 09
00:48:01.504 : de:Глава 10
00:53:10.437 : de:Глава 11
00:59:04.332 : de:Глава 12
01:10:33.563 : de:Глава 13
01:15:43.247 : de:Глава 14
01:24:27.271 : de:Глава 15
01:30:56.618 : de:Глава 16


Релиз: Присоединяйся к:


Download
Для скачивания .torrent файлов необходима регистрация
Сайт не распространяет и не хранит электронные версии произведений, а лишь предоставляет доступ к создаваемому пользователями каталогу ссылок на торрент-файлы, которые содержат только списки хеш-сумм

Страница 1 из 1

Ответить на тему

   Похожие торренты   Торрент 




tracker_crontracker_cron