Регистрация ·  Логин: Пароль: Запомнить   · Забыли пароль?




Ответить на тему
Статистика раздачи
Размер: 5.23 ГБ | Зарегистрирован: 15 ноя 2020, 16:16 | .torrent скачан: 0 раз(а), DHT: [ 0 ] раз(а)
Сидеров: [ 0  | 0 байт/сек ]   Личеров: [ 0  | 0 байт/сек ]   DHT: [ 0 / 0 ]
Автор Сообщение

Модератор

С нами: 2 года 5 месяцев
Сообщения: 3401
Россия

Сообщение 15 ноя 2020, 16:16 

[Цитировать]

Информация о фильме
Название: Восстание роботов
Оригинальное название: Robot Riot
Год выхода: 2020
Жанр: Фантастика, боевик
Режиссер: Райан Стэйплс Скотт
В ролях: Сара Дж. Бартоломью, Кайт Брасел, Джейми Коста, Дункан Барретт Браун, Джейсон Лейва, Райан Мерриман, Брукс Райан, Люк Вайкофф

О фильме: Группе солдат стирают память и сбрасывают на испытательный полигон, где некогда послушные машины обрели свой собственный разум и поставили перед собой одну цель - разрушать.



Выпущено: США / High Octane Pictures
Продолжительность: 01:27:53
Озвучивание: Профессиональное (многоголосое) | Звук с онлайн-кинотеатра IVI
Примечание: Без рекламы!

Файл
Формат: MKV
Качество: WEB-DL 1080p | AMAZON Version
Видео: MPEG-4 AVC, 8098 Kb/s, 1920x800
Аудио #1: Russian: 48 kHz, AC3 Dolby Digital, 2/0 (L, R) ch, ~192 Kbps | MVO | IVI
Аудио #2: English: 48 kHz, Enhanced AC3 Dolby Digital, 2/0 (L, R) ch, ~224 Kbps | Original
Субтитры: English (Full, SDH)
Дополнительно: Нет

Релиз группы: &

Complete name: Vosstanie.robotov.2020.1080p.AMZN.WEB-DL.ELEKTRI4KA.UNIONGANG.mkv
Format: Matroska
Format version: Version 4 / Version 2
File size: 5.23 GiB
Duration: 1 h 27 min
Overall bit rate: 8 516 kb/s
Movie name: .ELEKTRI4KA.UNIONGANG.
Encoded date: UTC 2020-11-04 22:19:48
Writing application: mkvmerge v8.3.0 ('Over the Horizon') 64bit
Writing library: libebml v1.3.1 + libmatroska v1.4.2

Video
ID: 1
Format: AVC
Format/Info: Advanced Video Codec
Format profile: [email protected]
Format settings, CABAC: Yes
Format settings, Reference frames: 4 frames
Codec ID: V_MPEG4/ISO/AVC
Duration: 1 h 27 min
Bit rate mode: Constant
Bit rate: 8 098 kb/s
Nominal bit rate: 10 000 kb/s
Width: 1 920 pixels
Height: 800 pixels
Display aspect ratio: 2.40:1
Frame rate mode: Constant
Frame rate: 23.976 (24000/1001) FPS
Color space: YUV
Chroma subsampling: 4:2:0
Bit depth: 8 bits
Scan type: Progressive
Bits/(Pixel*Frame): 0.220
Stream size: 4.97 GiB (95%)
Title: .ELEKTRI4KA.UNIONGANG.
Default: Yes
Forced: No
Color range: Limited
Color primaries: BT.709
Transfer characteristics: BT.709
Matrix coefficients: BT.709

Audio #1
ID: 2
Format: AC-3
Format/Info: Audio Coding 3
Mode extension: CM (complete main)
Format settings, Endianness: Big
Codec ID: A_AC3
Duration: 1 h 27 min
Bit rate mode: Constant
Bit rate: 192 kb/s
Channel(s): 2 channels
Channel positions: Front: L R
Sampling rate: 48.0 kHz
Frame rate: 31.250 FPS (1536 spf)
Bit depth: 16 bits
Compression mode: Lossy
Stream size: 121 MiB (2%)
Title: MVO (IVI)
Language: Russian
Default: Yes
Forced: No

Audio #2
ID: 3
Format: E-AC-3
Format/Info: Enhanced Audio Coding 3
Format settings, Endianness: Big
Codec ID: A_EAC3
Duration: 1 h 27 min
Bit rate mode: Constant
Bit rate: 224 kb/s
Channel(s): 2 channels
Channel positions: Front: L R
Sampling rate: 48.0 kHz
Frame rate: 187.500 FPS (256 spf)
Compression mode: Lossy
Stream size: 141 MiB (3%)
Title: Original
Language: English
Default: No
Forced: No

Text #1
ID: 4
Format: UTF-8
Codec ID: S_TEXT/UTF8
Codec ID/Info: UTF-8 Plain Text
Duration: 1 h 20 min
Bit rate: 43 b/s
Count of elements: 810
Stream size: 25.9 KiB (0%)
Language: English
Default: No
Forced: No

Text #2
ID: 5
Format: UTF-8
Codec ID: S_TEXT/UTF8
Codec ID/Info: UTF-8 Plain Text
Duration: 1 h 23 min
Bit rate: 50 b/s
Count of elements: 1052
Stream size: 30.9 KiB (0%)
Title: SDH
Language: English
Default: No
Forced: No


Download
Для скачивания .torrent файлов необходима регистрация
Сайт не распространяет и не хранит электронные версии произведений, а лишь предоставляет доступ к создаваемому пользователями каталогу ссылок на торрент-файлы, которые содержат только списки хеш-сумм

Страница 1 из 1

Ответить на тему

   Похожие торренты   Торрент