Регистрация ·  Логин: Пароль: Запомнить   · Забыли пароль?




Ответить на тему
Статистика раздачи
Размер: 7.59 ГБ | Зарегистрирован: 15 ноя 2020, 16:16 | .torrent скачан: 0 раз(а), DHT: [ 8 ] раз(а)
Сидеров: [ 2  | 0 байт/сек ]   Личеров: [ 0  | 0 байт/сек ]   DHT: [ 2 / 0 ]
Автор Сообщение

Модератор

С нами: 2 года 5 месяцев
Сообщения: 3401
Россия

Сообщение 15 ноя 2020, 16:16 

[Цитировать]


Название: Реликвия
Оригинальное название: Relic
Год выхода: 2020
Жанр: Ужасы, драма
Режиссер: Натали Эрика Джеймс
В ролях: Эмили Мортимер, Робин Невин, Белла Хиткот, Джереми Стэнфорд, Крис Бантон, Кристина О’Нилл, Катрина Главичич, Стив Роджерс, Робин Нортовер, Джон Браунинг
О фильме: Три женщины - представительницы разных поколений одной семьи – сталкиваются с неведомым. Что-то странное случается с бабушкой, после чего мать и дочь отправляются в её лесной домик, где пытаются разобраться в творящейся чертовщине.


Страна: Австралия, США
Студия: Carver Films, Film Victoria, Nine Stories Productions
Продолжительность: 01:29:36
Перевод: Перевод: BadBajo
Озвучивание: Авторское одноголосое (Важенин (BadBajo))
Формат: MKV
Качество: BDRip 1080p
Видео: MPEG-4 AVC, ~ 10.9 Mбит/с, 1920x802, 23.976 fps
Аудио 1: 48 kHz, AC3, 5.1, 384 Kbps | AVO | RUS |
Аудио 2: AC3, 48.0 KHz, 5.1 ch, 640 kbps | ENG |
Субтитры: Русские, английские
General
Unique ID : 231078423095281548704411971625821718360 (0xADD815E051DEB055A71FF19B4124C758)
Complete name : G:Relic.2020.AVO.1080p.BluRay.ExKinoRay.mkv
Format : Matroska
Format version : Version 2
File size : 7.59 GiB
Duration : 1 h 29 min
Overall bit rate : 12.1 Mb/s
Movie name : Relic 2020 from ExKinoRay
Encoded date : UTC 2020-11-05 05:22:49
Writing application : mkvmerge v5.6.0 ('Kenya Kane') built on May 27 2012 16:44:04
Writing library : libebml v1.2.3 + libmatroska v1.3.0

Video
ID : 1
Format : AVC
Format/Info : Advanced Video Codec
Format profile : [email protected]
Format settings, CABAC : Yes
Format settings, ReFrames : 5 frames
Codec ID : V_MPEG4/ISO/AVC
Duration : 1 h 29 min
Bit rate : 10.9 Mb/s
Width : 1 920 pixels
Height : 802 pixels
Display aspect ratio : 2.40:1
Frame rate mode : Constant
Frame rate : 23.976 (24000/1001) FPS
Color space : YUV
Chroma subsampling : 4:2:0
Bit depth : 8 bits
Scan type : Progressive
Bits/(Pixel*Frame) : 0.294
Stream size : 6.80 GiB (90%)
Title : iFT
Writing library : x264 core 161 r3018+53 ~ Encoded by Mocunaman in Portugal
Encoding settings : cabac=1 / ref=5 / deblock=1:-3:-3 / analyse=0x3:0x113 / me=umh / subme=11 / psy=1 / fade_compensate=0.00 / psy_rd=1.00:0.00 / mixed_ref=1 / me_range=32 / chroma_me=1 / trellis=2 / 8x8dct=1 / cqm=0 / deadzone=21,11 / fast_pskip=0 / chroma_qp_offset=-2 / threads=25 / lookahead_threads=6 / sliced_threads=0 / nr=0 / decimate=0 / interlaced=0 / bluray_compat=0 / constrained_intra=0 / fgo=0 / bframes=10 / b_pyramid=2 / b_adapt=2 / b_bias=0 / direct=3 / weightb=1 / open_gop=0 / weightp=2 / keyint=250 / keyint_min=23 / scenecut=40 / intra_refresh=0 / rc_lookahead=60 / rc=crf / mbtree=0 / crf=16.0000 / qcomp=0.65 / qpmin=0:0:0 / qpmax=69:69:69 / qpstep=4 / vbv_maxrate=62500 / vbv_bufsize=78125 / crf_max=0.0 / nal_hrd=none / filler=0 / ip_ratio=1.30 / pb_ratio=1.20 / aq=3:0.85 / aq-sensitivity=10.00 / aq-factor=1.00:1.00:1.00 / aq2=0 / aq3=0
Language : English
Default : Yes
Forced : No
Color range : Limited
Color primaries : BT.709
Transfer characteristics : BT.709
Matrix coefficients : BT.709

Audio #1
ID : 2
Format : AC-3
Format/Info : Audio Coding 3
Mode extension : CM (complete main)
Format settings, Endianness : Big
Codec ID : A_AC3
Duration : 1 h 29 min
Bit rate mode : Constant
Bit rate : 384 kb/s
Channel(s) : 6 channels
Channel positions : Front: L C R, Side: L R, LFE
Sampling rate : 48.0 kHz
Frame rate : 31.250 FPS (1536 spf)
Compression mode : Lossy
Stream size : 246 MiB (3%)
Title : AVO (Badbajo)
Language : Russian
Default : Yes
Forced : No

Audio #2
ID : 3
Format : AC-3
Format/Info : Audio Coding 3
Mode extension : CM (complete main)
Format settings, Endianness : Big
Codec ID : A_AC3
Duration : 1 h 29 min
Bit rate mode : Constant
Bit rate : 640 kb/s
Channel(s) : 6 channels
Channel positions : Front: L C R, Side: L R, LFE
Sampling rate : 48.0 kHz
Frame rate : 31.250 FPS (1536 spf)
Compression mode : Lossy
Stream size : 410 MiB (5%)
Language : English
Default : No
Forced : No

Text #1
ID : 4
Format : UTF-8
Codec ID : S_TEXT/UTF8
Codec ID/Info : UTF-8 Plain Text
Title : Full
Language : Russian
Default : No
Forced : No

Text #2
ID : 5
Format : UTF-8
Codec ID : S_TEXT/UTF8
Codec ID/Info : UTF-8 Plain Text
Title : Full
Language : English
Default : No
Forced : No

Menu
00:00:00.000 : en:Chapter 01
00:10:46.354 : en:Chapter 02
00:22:33.519 : en:Chapter 03
00:32:08.718 : en:Chapter 04
00:43:08.920 : en:Chapter 05
00:53:21.448 : en:Chapter 06
01:03:07.242 : en:Chapter 07
01:11:28.659 : en:Chapter 08
01:24:24.017 : en:Chapter 09



Релиз от:

Автор релиза:


Download
Для скачивания .torrent файлов необходима регистрация
Сайт не распространяет и не хранит электронные версии произведений, а лишь предоставляет доступ к создаваемому пользователями каталогу ссылок на торрент-файлы, которые содержат только списки хеш-сумм

Страница 1 из 1

Ответить на тему

   Похожие торренты   Торрент 




cron