Регистрация ·  Логин: Пароль: Запомнить   · Забыли пароль?




Ответить на тему
Статистика раздачи
Размер: 4.15 ГБ | Зарегистрирован: 15 ноя 2020, 16:16 | .torrent скачан: 0 раз(а), DHT: [ 4195 ] раз(а)
Сидеров: [ 156  | 0 байт/сек ]   Личеров: [ 3  | 0 байт/сек ]   DHT: [ 156 / 3 ]
Автор Сообщение

Модератор

С нами: 2 года 4 месяца
Сообщения: 3361
Россия

Сообщение 15 ноя 2020, 16:16 

[Цитировать]


Информация о фильме
Название: Обладатель / В чужой шкуре
Оригинальное название: Possessor
Год выхода: 2020
Жанр: Фантастика, триллер, ужасы
Режиссер: Брэндон Кроненберг
В ролях: Андреа Райзборо, Дженнифер Джейсон Ли, Шон Бин, Таппенс Мидлтон, Кристофер Эбботт, Каньехтио Хорн, Россиф Сазерленд, Хеннеки Талбот, Кристофер Жако, Дераг Кэмпбелл

О фильме:
В будущем с помощью неких мозговых имплантов киллер может оказаться в теле другого человека и, подавляя его волю, совершать убийства. Но выйти из тела носителя возможно, только если он умрёт. За этим стоит зловещая корпорация, и однажды исполнительница таких ужасных заданий начинает терять контроль.


Страна: Великобритания, Канада
Студия: Rhombus Media, Rook Films, Particular Crowd
Продолжительность: 01:44:17
Перевод: Любительский двухголосый | LakeFilms
*** Присутствует ненормативная лексика!

Файл
Кодек: AVC
Качество: WEB-DL 1080p | Possessor.2020.UNCUT.1080p.WEB-DL.DD5.1.H264-FGT
Видео: MPEG-4 AVC, 5061 Кбит/с, 1920x1080, 23.976 кадр/с
Аудио #1: Русский (АС3, 2 ch, 256 Кбит/с, 48.0 KHz) Любительский (двухголосый, закадровый) LakeFilms
Аудио #2: Английский (АС3, 6 ch, 384 Кбит/с, 48.0 KHz)
Субтитры: английские
► Без Рекламы!
Трейлер
Источник: Possessor.2020.UNCUT.1080p.WEB-DL.DD5.1.H264-FGT
General
Unique ID : 189523505929512596029523683829874227098 (0x8E94E6472BE39A13B2FFBA4D9918F79A)
Complete name : Possessor.2020.UNCUT.WEB-DL.1080p.mkv
Format : Matroska
Format version : Version 4
File size : 4.15 GiB
Duration : 1 h 44 min
Overall bit rate : 5 703 kb/s
Encoded date : UTC 2020-11-04 12:54:47
Writing application : mkvmerge v7.1.0 ('Good Love') 64bit built on Jul 27 2014 13:06:55
Writing library : libebml v1.3.0 + libmatroska v1.4.1

Video
ID : 1
Format : AVC
Format/Info : Advanced Video Codec
Format profile : [email protected]
Format settings : CABAC / 4 Ref Frames
Format settings, CABAC : Yes
Format settings, Reference fra : 4 frames
Codec ID : V_MPEG4/ISO/AVC
Duration : 1 h 44 min
Bit rate : 5 061 kb/s
Width : 1 920 pixels
Height : 1 080 pixels
Display aspect ratio : 16:9
Frame rate mode : Constant
Frame rate : 23.976 (24000/1001) FPS
Color space : YUV
Chroma subsampling : 4:2:0
Bit depth : 8 bits
Scan type : Progressive
Bits/(Pixel*Frame) : 0.102
Stream size : 3.69 GiB (89%)
Language : English
Default : Yes
Forced : No
Color range : Limited
Color primaries : BT.709
Transfer characteristics : BT.709
Matrix coefficients : BT.709

Audio #1
ID : 2
Format : AC-3
Format/Info : Audio Coding 3
Commercial name : Dolby Digital
Codec ID : A_AC3
Duration : 1 h 44 min
Bit rate mode : Constant
Bit rate : 256 kb/s
Channel(s) : 2 channels
Channel layout : L R
Sampling rate : 48.0 kHz
Frame rate : 31.250 FPS (1536 SPF)
Compression mode : Lossy
Stream size : 191 MiB (4%)
Title : LakeFilms
Language : Russian
Service kind : Complete Main
Default : Yes
Forced : No

Audio #2
ID : 3
Format : AC-3
Format/Info : Audio Coding 3
Commercial name : Dolby Digital
Codec ID : A_AC3
Duration : 1 h 44 min
Bit rate mode : Constant
Bit rate : 384 kb/s
Channel(s) : 6 channels
Channel layout : L R C LFE Ls Rs
Sampling rate : 48.0 kHz
Frame rate : 31.250 FPS (1536 SPF)
Compression mode : Lossy
Stream size : 286 MiB (7%)
Language : English
Service kind : Complete Main
Default : No
Forced : No

Text
ID : 4
Format : UTF-8
Codec ID : S_TEXT/UTF8
Codec ID/Info : UTF-8 Plain Text
Duration : 1 h 33 min
Bit rate : 31 b/s
Count of elements : 721
Stream size : 21.8 KiB (0%)
Language : English
Default : No
Forced : No

Download
Для скачивания .torrent файлов необходима регистрация
Сайт не распространяет и не хранит электронные версии произведений, а лишь предоставляет доступ к создаваемому пользователями каталогу ссылок на торрент-файлы, которые содержат только списки хеш-сумм

Страница 1 из 1

Ответить на тему

   Похожие торренты   Торрент 




tracker_crontracker_cron