Регистрация ·  Логин: Пароль: Запомнить   · Забыли пароль?




Ответить на тему
Статистика раздачи
Размер: 4.83 ГБ | Зарегистрирован: 15 ноя 2020, 16:15 | .torrent скачан: 0 раз(а), DHT: [ 0 ] раз(а)
Сидеров: [ 0  | 0 байт/сек ]   Личеров: [ 0  | 0 байт/сек ]   DHT: [ 0 / 0 ]
Автор Сообщение

Модератор

С нами: 2 года 4 месяца
Сообщения: 3361
Россия

Сообщение 15 ноя 2020, 16:15 

[Цитировать]

Информация о фильме
Название: Суд над чикагской семеркой
Оригинальное название: The Trial of the Chicago 7
Год выхода: 2020
Жанр: Триллер, биография, драма, история, реальные события
Режиссер: Аарон Соркин
В ролях: Эдди Редмэйн, Алекс Шарп, Саша Барон Коэн, Джереми Стронг, Джон Кэрролл Линч, Яхья Абдул-Матин II, Марк Райлэнс, Джозеф Гордон-Левитт, Бен Шенкман, Дж.С. МакКензи

О фильме:
Новый фильм по сценарию обладателя премии "Оскар" Аарона Соркина, который он же и срежиссировал, имеет все шансы стать лучшим в году... 60-е для всего мира стали временем перемен: две пережитых войны за спиной, разразившиеся Берлинский и Карибский кризисы, "культурная революция" в КНР, воцарение режима "черных полковников" в Греции - все эти события намекали на то, что старый мир нуждается в реформации. В США, которые колошматило от утопической страны мечты до вотчины Большого брата времен Уотергейтского скандала, часто забывают о "деле чикагской семерки" - громком судебном процессе, который оказал огромное влияние на американское общество... Второй режиссерский проект Аарона Соркина (после "Большой игры"), мастера диалогового кино, рассказывает именно об этом. Сценарий был написан еще в 2007 году, и тогда в кресле постановщика видели Стивена Спилберга, но "Суд над чикагской семеркой" ушел на полку и вернулся именно тогда, когда должен был. Кажется, более актуального сюжета к 2020 году просто не придумать...



Страна: США, Великобритания, Индия
Студия: Dreamworks Pictures, Amblin Partners, CAA Media Finance
Продолжительность: 02:10:10
Перевод: Профессиональный (многоголосый, закадровый)

Файл
Качество: WEB-DL 1080p
Видео: AVC/H.264, 1920х1080, ~3650 Kbps
Аудио 1: AC3, 6 ch, 640 Kbps - Русский (MVO, NewStudio) ненормативная лексика
Аудио 2: AC3, 6 ch, 448 Kbps - Русский (MVO, HDRezka Studio)
Аудио 3: Е-AC3, 6 ch, 640 Kbps - Английский
Субтитры: Русские (forced, full), английские, французские, немецкие, китайские
Релиз: mike7025

General
Format : Matroska
Format version : Version 4
File size : 4.83 GiB
Duration : 2 h 10 min
Overall bit rate mode : Variable
Overall bit rate : 5 315 kb/s
Encoded date : UTC 2020-11-03 07:01:16
Writing application : mkvmerge v20.0.0 ('I Am The Sun') 64-bit
Writing library : libebml v1.3.5 + libmatroska v1.4.8

Video
ID : 1
Format : AVC
Format/Info : Advanced Video Codec
Format profile : [email protected]
Format settings : CABAC / 3 Ref Frames
Format settings, CABAC : Yes
Format settings, Reference frames : 3 frames
Codec ID : V_MPEG4/ISO/AVC
Duration : 2 h 10 min
Bit rate mode : Variable
Bit rate : 3 650 kb/s
Maximum bit rate : 5 475 kb/s
Width : 1 920 pixels
Height : 1 080 pixels
Display aspect ratio : 16:9
Frame rate mode : Constant
Frame rate : 24.000 FPS
Color space : YUV
Chroma subsampling : 4:2:0
Bit depth : 8 bits
Scan type : Progressive
Bits/(Pixel*Frame) : 0.073
Stream size : 3.26 GiB (67%)
Writing library : x264 core 148 r2722 1b0121b
Encoding settings : cabac=1 / ref=3 / deblock=1:0:0 / analyse=0x1:0x111 / me=umh / subme=10 / psy=1 / psy_rd=1.00:0.00 / mixed_ref=1 / me_range=24 / chroma_me=1 / trellis=2 / 8x8dct=0 / cqm=0 / deadzone=21,11 / fast_pskip=1 / chroma_qp_offset=-2 / threads=8 / lookahead_threads=1 / sliced_threads=0 / nr=0 / decimate=1 / interlaced=0 / bluray_compat=0 / stitchable=1 / constrained_intra=0 / bframes=2 / b_pyramid=0 / b_adapt=2 / b_bias=0 / direct=3 / weightb=1 / open_gop=0 / weightp=2 / keyint=250 / keyint_min=24 / scenecut=0 / intra_refresh=0 / rc_lookahead=48 / rc=2pass / mbtree=1 / bitrate=3650 / ratetol=1.0 / qcomp=0.50 / qpmin=6 / qpmax=51 / qpstep=4 / cplxblur=20.0 / qblur=0.5 / vbv_maxrate=5475 / vbv_bufsize=7300 / nal_hrd=vbr / filler=0 / ip_ratio=1.40 / aq=1:1.00
Language : English
Default : Yes
Forced : No

Audio #1
ID : 2
Format : AC-3
Format/Info : Audio Coding 3
Commercial name : Dolby Digital
Codec ID : A_AC3
Duration : 2 h 10 min
Bit rate mode : Constant
Bit rate : 640 kb/s
Channel(s) : 6 channels
Channel layout : L R C LFE Ls Rs
Sampling rate : 48.0 kHz
Frame rate : 31.250 FPS (1536 SPF)
Compression mode : Lossy
Stream size : 596 MiB (12%)
Title : MVO NewStudio
Language : Russian
Service kind : Complete Main
Default : Yes
Forced : No

Audio #2
ID : 3
Format : AC-3
Format/Info : Audio Coding 3
Commercial name : Dolby Digital
Codec ID : A_AC3
Duration : 2 h 10 min
Bit rate mode : Constant
Bit rate : 448 kb/s
Channel(s) : 6 channels
Channel layout : L R C LFE Ls Rs
Sampling rate : 48.0 kHz
Frame rate : 31.250 FPS (1536 SPF)
Compression mode : Lossy
Stream size : 417 MiB (8%)
Title : MVO HDRezka Studio
Language : Russian
Service kind : Complete Main
Default : No
Forced : No

Audio #3
ID : 4
Format : E-AC-3
Format/Info : Enhanced AC-3
Commercial name : Dolby Digital Plus
Codec ID : A_EAC3
Duration : 2 h 10 min
Bit rate mode : Constant
Bit rate : 640 kb/s
Channel(s) : 6 channels
Channel layout : L R C LFE Ls Rs
Sampling rate : 48.0 kHz
Frame rate : 31.250 FPS (1536 SPF)
Compression mode : Lossy
Stream size : 596 MiB (12%)
Language : English
Service kind : Complete Main
Default : No
Forced : No

Text #1
ID : 5
Format : UTF-8
Codec ID : S_TEXT/UTF8
Codec ID/Info : UTF-8 Plain Text
Duration : 1 h 51 min
Bit rate : 2 b/s
Count of elements : 26
Stream size : 1.83 KiB (0%)
Title : forced NewStudio
Language : Russian
Default : Yes
Forced : No

Text #2
ID : 6
Format : UTF-8
Codec ID : S_TEXT/UTF8
Codec ID/Info : UTF-8 Plain Text
Duration : 1 h 57 min
Bit rate : 4 b/s
Count of elements : 62
Stream size : 4.07 KiB (0%)
Title : forced HDRezka Studio
Language : Russian
Default : No
Forced : No

Text #3
ID : 7
Format : UTF-8
Codec ID : S_TEXT/UTF8
Codec ID/Info : UTF-8 Plain Text
Duration : 2 h 8 min
Bit rate : 138 b/s
Count of elements : 2092
Stream size : 130 KiB (0%)
Language : Russian
Default : No
Forced : No

Text #4
ID : 8
Format : UTF-8
Codec ID : S_TEXT/UTF8
Codec ID/Info : UTF-8 Plain Text
Duration : 2 h 7 min
Bit rate : 91 b/s
Count of elements : 2090
Stream size : 85.6 KiB (0%)
Language : English
Default : No
Forced : No

Text #5
ID : 9
Format : UTF-8
Codec ID : S_TEXT/UTF8
Codec ID/Info : UTF-8 Plain Text
Duration : 2 h 7 min
Bit rate : 80 b/s
Count of elements : 2054
Stream size : 75.8 KiB (0%)
Title : French
Language : French
Default : No
Forced : No

Text #6
ID : 10
Format : UTF-8
Codec ID : S_TEXT/UTF8
Codec ID/Info : UTF-8 Plain Text
Duration : 2 h 8 min
Bit rate : 79 b/s
Count of elements : 2059
Stream size : 74.6 KiB (0%)
Title : German
Language : German
Default : No
Forced : No

Text #7
ID : 11
Format : UTF-8
Codec ID : S_TEXT/UTF8
Codec ID/Info : UTF-8 Plain Text
Duration : 2 h 8 min
Bit rate : 92 b/s
Count of elements : 2083
Stream size : 86.3 KiB (0%)
Title : Simplified Chinese
Language : Chinese
Default : No
Forced : No

Download
Для скачивания .torrent файлов необходима регистрация
Сайт не распространяет и не хранит электронные версии произведений, а лишь предоставляет доступ к создаваемому пользователями каталогу ссылок на торрент-файлы, которые содержат только списки хеш-сумм

Страница 1 из 1

Ответить на тему

   Похожие торренты   Торрент 




tracker_crontracker_cron