Регистрация ·  Логин: Пароль: Запомнить   · Забыли пароль?




Ответить на тему
Статистика раздачи
Размер: 1.45 ГБ | Зарегистрирован: 15 ноя 2020, 16:15 | .torrent скачан: 0 раз(а), DHT: [ 2 ] раз(а)
Сидеров: [ 5  | 0 байт/сек ]   Личеров: [ 0  | 0 байт/сек ]   DHT: [ 5 / 0 ]
Автор Сообщение

Модератор

С нами: 2 года 4 месяца
Сообщения: 3361
Россия

Сообщение 15 ноя 2020, 16:15 

[Цитировать]

Ловец снов / Dreamkatcher

Информация о фильме:
Название: Ловец снов
Оригинальное название: Dreamkatcher
Год выхода: 2020
Жанр: Ужасы, триллер
Режиссер: Керри Харрис
В ролях: Рада Митчелл, Генри Томас, Лин Шэй, Жуль Уиллкокс, Джозеф Бишара, Финлэй Войтаг-Хиссонг, Дункан Фостер-Аллен, Дж. Кристиан Ингвордсен, Белла Мари Фучиле, Каллен Риера
Описание: Совсем немного времени прошло после убийства жены Люка соседским мальчишкой в отдалённом лесном домике, но мужчина привозит туда свою новую пассию Гейл и сына Джоша. Ребёнка мучают страшные сны, в которых ему является мёртвая мама, а Гейл — детский психилог со стажем — изо всех сил пытается помочь мальчику. Однажды, наслушавшись рассказов соседки про ловцы снов, Джош крадёт у неё из сундука полезную, как он думал, для избавления от кошмаров вещь, но после этого его сны становятся ещё более реалистичными и пугающими.

Страна: США
Студия: Taylor Lane Productions
Продолжительность: 01:25:18
Перевод: Дублированное - iTunes

Информация о файле:
Кодек: AVC
Формат: MKV
Качество: WEB-DLRip-AVC
Видео: MPEG-4 AVC, 1024x576 (16:9), 23.976 fps, 1603 kbps, 0.113
Аудио RU: AC3, 6 ch, 48 kHz, 384 kbps
Аудио EN: AC3, 6 ch, 48 kHz, 448 kbps
Субтитры: Russian (Full, SDH), English (Full, SDH)
Навигация по главам: Нет


x264 info: frame I:794 Avg QP:14.87 size: 66019
x264 info: frame P:28955 Avg QP:19.05 size: 18605
x264 info: frame B:92943 Avg QP:20.44 size: 4637
==================================================
General
Unique ID : 56498236093315118049795057374511868071 (0x2A812A1AAFF9FA0258AFA57C4AB9A8A7)
Complete name : D:uTorrentРипы_от_wolf1245_MediaBitDreamkatcher (2020) WEB-DLRip-AVC from wolf1245 & MediaBit.mkv
Format : Matroska
Format version : Version 4
File size : 1.45 GiB
Duration : 1 h 25 min
Overall bit rate : 2 434 kb/s
Movie name : Dreamkatcher (2020) WEB-DLRip-AVC from wolf1245 & MediaBit
Encoded date : UTC 2020-11-02 17:08:34
Writing application : mkvmerge v51.0.0 ('I Wish') 64-bit
Writing library : libebml v1.4.0 + libmatroska v1.6.2
Cover : Yes
Attachments : cover / cover.png
Video
ID : 1
Format : AVC
Format/Info : Advanced Video Codec
Format profile : [email protected]
Format settings : CABAC / 12 Ref Frames
Format settings, CABAC : Yes
Format settings, Reference frames : 12 frames
Codec ID : V_MPEG4/ISO/AVC
Duration : 1 h 25 min
Bit rate : 1 603 kb/s
Width : 1 024 pixels
Height : 576 pixels
Display aspect ratio : 16:9
Frame rate mode : Constant
Frame rate : 23.976 (24000/1001) FPS
Color space : YUV
Chroma subsampling : 4:2:0
Bit depth : 8 bits
Scan type : Progressive
Bits/(Pixel*Frame) : 0.113
Stream size : 975 MiB (66%)
Title : wolf1245 & MediaBit
Writing library : x264 core 157 r2958 57baac4
Encoding settings : cabac=1 / ref=12 / deblock=1:-3:-3 / analyse=0x3:0x133 / me=umh / subme=11 / psy=1 / psy_rd=1.00:0.00 / mixed_ref=1 / me_range=48 / chroma_me=1 / trellis=2 / 8x8dct=1 / cqm=0 / deadzone=21,11 / fast_pskip=0 / chroma_qp_offset=-2 / threads=10 / lookahead_threads=2 / sliced_threads=0 / nr=0 / decimate=0 / interlaced=0 / bluray_compat=0 / constrained_intra=0 / bframes=12 / b_pyramid=2 / b_adapt=2 / b_bias=0 / direct=3 / weightb=1 / open_gop=0 / weightp=2 / keyint=240 / keyint_min=24 / scenecut=40 / intra_refresh=0 / rc_lookahead=40 / rc=2pass / mbtree=0 / bitrate=1603 / ratetol=1.0 / qcomp=0.60 / qpmin=0 / qpmax=69 / qpstep=4 / cplxblur=20.0 / qblur=0.5 / vbv_maxrate=50000 / vbv_bufsize=62500 / nal_hrd=none / filler=0 / ip_ratio=1.40 / pb_ratio=1.30 / aq=3:0.80
Language : English
Default : Yes
Forced : No
Color range : Limited
Color primaries : BT.709
Transfer characteristics : BT.709
Matrix coefficients : BT.709
Audio #1
ID : 2
Format : AC-3
Format/Info : Audio Coding 3
Commercial name : Dolby Digital
Codec ID : A_AC3
Duration : 1 h 25 min
Bit rate mode : Constant
Bit rate : 384 kb/s
Channel(s) : 6 channels
Channel layout : L R C LFE Ls Rs
Sampling rate : 48.0 kHz
Frame rate : 31.250 FPS (1536 SPF)
Compression mode : Lossy
Stream size : 234 MiB (16%)
Title : [DUB] | iTunes
Language : Russian
Service kind : Complete Main
Default : Yes
Forced : No
Audio #2
ID : 3
Format : AC-3
Format/Info : Audio Coding 3
Commercial name : Dolby Digital
Codec ID : A_AC3
Duration : 1 h 25 min
Bit rate mode : Constant
Bit rate : 448 kb/s
Channel(s) : 6 channels
Channel layout : L R C LFE Ls Rs
Sampling rate : 48.0 kHz
Frame rate : 31.250 FPS (1536 SPF)
Compression mode : Lossy
Stream size : 273 MiB (18%)
Title : [ORIGINAL] | (Amazon)
Language : English
Service kind : Complete Main
Default : No
Forced : No
Text #1
ID : 4
Format : UTF-8
Codec ID : S_TEXT/UTF8
Codec ID/Info : UTF-8 Plain Text
Duration : 1 h 19 min
Bit rate : 69 b/s
Count of elements : 762
Stream size : 40.6 KiB (0%)
Title : Full-length
Language : Russian
Default : No
Forced : No
Text #2
ID : 5
Format : UTF-8
Codec ID : S_TEXT/UTF8
Codec ID/Info : UTF-8 Plain Text
Duration : 1 h 19 min
Bit rate : 80 b/s
Count of elements : 907
Stream size : 46.6 KiB (0%)
Title : SDH
Language : Russian
Default : No
Forced : No
Text #3
ID : 6
Format : UTF-8
Codec ID : S_TEXT/UTF8
Codec ID/Info : UTF-8 Plain Text
Duration : 1 h 11 min
Bit rate : 41 b/s
Count of elements : 747
Stream size : 21.8 KiB (0%)
Title : Full-length
Language : English
Default : No
Forced : No
Text #4
ID : 7
Format : UTF-8
Codec ID : S_TEXT/UTF8
Codec ID/Info : UTF-8 Plain Text
Duration : 1 h 17 min
Bit rate : 43 b/s
Count of elements : 856
Stream size : 24.3 KiB (0%)
Title : SDH
Language : English
Default : No
Forced : No

Релиз от: & &

Download
Для скачивания .torrent файлов необходима регистрация
Сайт не распространяет и не хранит электронные версии произведений, а лишь предоставляет доступ к создаваемому пользователями каталогу ссылок на торрент-файлы, которые содержат только списки хеш-сумм

Страница 1 из 1

Ответить на тему

   Похожие торренты   Торрент 




tracker_crontracker_cron