Регистрация ·  Логин: Пароль: Запомнить   · Забыли пароль?




Ответить на тему
Статистика раздачи
Размер: 1.42 ГБ | Зарегистрирован: 15 ноя 2020, 16:14 | .torrent скачан: 0 раз(а), DHT: [ 0 ] раз(а)
Сидеров: [ 0  | 0 байт/сек ]   Личеров: [ 0  | 0 байт/сек ]   DHT: [ 0 / 0 ]
Автор Сообщение

Модератор

С нами: 2 года 4 месяца
Сообщения: 3361
Россия

Сообщение 15 ноя 2020, 16:14 

[Цитировать]


Информация о фильме
Название: Не входи
Оригинальное название: The Owners
Год выхода: 2020
Жанр: Триллер, криминал

Режиссер: Джулиус Берг
В ролях: Мэйси Уильямс, Сильвестр МакКой, Рита Ташингэм, Джейк Каррен, Эндрю Эллис, Иэн Кенни, Сташа Хикс, Майкл Йэтс

О фильме: Три молодых британских бездельника планируют ограбить особняк местного хирурга. Проникнув в дом, они довольно быстро находят сейф, но взломать его никак не получается. Пока злоумышленники дожидаются хозяев, чтобы выпытать у них код, к ним присоединяется девушка одного из них. А когда домой возвращается пожилой доктор с супругой, события принимают неожиданный поворот.



Страна: Великобритания
Студия: Blue Light, Logical Pictures, Wild Bunch, XYZ Films
Продолжительность: 01:31:51
Перевод: Профессиональный (полное дублирование) | iTunes

Файл
Качество: BDRip-AVC
Исходник: The.Owners.2020.BDREMUX.1080p.seleZen
Формат: MKV
Кодек: MPEG-4 AVC
Видео: 832x348 (2, 40:1), 23, 976 fps, MPEG-4 AVC ~ 1824 Kbps avg, 0.262 bit/pixel
Аудио: AC3, 48 kHz, 6 ch, ~384.00 kbps avg | русский | iTunes
Субтитры: Русские (Full)



Общее
Уникальный идентификатор : 101172230223634844305177061704673787457 (0x4C1D1011E10E35EB20AB871F620BFE41)
Полное имя : The.Owners.2020.BDRip.1.42Gb.x264.MegaPeer.mkv
Формат : Matroska
Версия формата : Version 4
Размер файла : 1,42 Гбайт
Продолжительность : 1 ч. 31 м.
Общий поток : 2 206 Кбит/сек
Название фильма : Не входи / The Owners (2020)
Дата кодирования : UTC 2020-11-02 02:48:25
Программа кодирования : mkvmerge v47.0.0 ('Black Flag') 64-bit
Библиотека кодирования : libebml v1.3.10 + libmatroska v1.5.2
Обложка : Yes
Attachments : cover.jpg

Видео
Идентификатор : 1
Формат : AVC
Формат/Информация : Advanced Video Codec
Профиль формата : [email protected]
Настройки формата : CABAC / 12 Ref Frames
Параметр CABAC формата : Да
Параметр RefFrames формата : 12 кадров
Идентификатор кодека : V_MPEG4/ISO/AVC
Продолжительность : 1 ч. 31 м.
Битрейт : 1 824 Кбит/сек
Ширина : 832 пикселя
Высота : 348 пикселей
Соотношение сторон : 2,40:1
Режим частоты кадров : Постоянный
Частота кадров : 24,000 кадра/сек
Цветовое пространство : YUV
Субдискретизация насыщенности : 4:2:0
Битовая глубина : 8 бит
Тип развёртки : Прогрессивная
Бит/(Пиксели*Кадры) : 0.262
Размер потока : 1,17 Гбайт (83%)
Заголовок : [email protected]
Библиотека кодирования : x264 core 152 r2851bm ba24899
Настройки программы : cabac=1 / ref=12 / deblock=1:-2:-2 / analyse=0x3:0x113 / me=umh / subme=10 / psy=1 / psy_rd=1.00:0.15 / mixed_ref=1 / me_range=32 / chroma_me=1 / trellis=2 / 8x8dct=1 / cqm=0 / deadzone=21,11 / fast_pskip=0 / chroma_qp_offset=-3 / threads=8 / lookahead_threads=3 / sliced_threads=0 / nr=0 / decimate=0 / interlaced=0 / bluray_compat=0 / constrained_intra=0 / bframes=14 / b_pyramid=2 / b_adapt=2 / b_bias=0 / direct=3 / weightb=1 / open_gop=0 / weightp=2 / keyint=240 / keyint_min=23 / scenecut=40 / intra_refresh=0 / rc=2pass / mbtree=0 / bitrate=1824 / ratetol=1.0 / qcomp=0.60 / qpmin=0 / qpmax=69 / qpstep=4 / cplxblur=20.0 / qblur=0.5 / ip_ratio=1.40 / pb_ratio=1.30 / aq=1:1.00
Язык : English
Default : Да
Forced : Нет

Аудио
Идентификатор : 2
Формат : AC-3
Формат/Информация : Audio Coding 3
Коммерческое название : Dolby Digital
Идентификатор кодека : A_AC3
Продолжительность : 1 ч. 31 м.
Вид битрейта : Постоянный
Битрейт : 384 Кбит/сек
Каналы : 6 каналов
Channel layout : L R C LFE Ls Rs
Частота : 48,0 КГц
Частота кадров : 31,250 кадров/сек (1536 SPF)
Метод сжатия : С потерями
Размер потока : 252 Мбайт (17%)
Заголовок : iTunes
Язык : Russian
Service kind : Complete Main
Default : Да
Forced : Да

Текст
Идентификатор : 3
Формат : UTF-8
Идентификатор кодека : S_TEXT/UTF8
Идентификатор кодека/Информация : UTF-8 Plain Text
Продолжительность : 1 ч. 27 м.
Битрейт : 86 бит/сек
Count of elements : 1297
Размер потока : 55,3 Кбайт (0%)
Заголовок : Full
Язык : Russian
Default : Нет
Forced : Нет

Меню
00:00:00.000 : en:They're Leaving
00:10:19.583 : en:They Give Us What We Want
00:24:54.167 : en:Everything Will Be Fine
00:30:34.000 : en:The Code
00:42:04.000 : en:Needles are Sharp
00:54:45.792 : en:A Wonderful Girl
01:09:22.833 : en:Don't Lie
01:29:24.875 : en:End Credits

Релиз:

Download
Для скачивания .torrent файлов необходима регистрация
Сайт не распространяет и не хранит электронные версии произведений, а лишь предоставляет доступ к создаваемому пользователями каталогу ссылок на торрент-файлы, которые содержат только списки хеш-сумм

Страница 1 из 1

Ответить на тему

   Похожие торренты   Торрент 




tracker_crontracker_cron