Регистрация ·  Логин: Пароль: Запомнить   · Забыли пароль?




Ответить на тему
Статистика раздачи
Размер: 5.57 ГБ | Зарегистрирован: 15 ноя 2020, 16:14 | .torrent скачан: 0 раз(а), DHT: [ 48 ] раз(а)
Сидеров: [ 12  | 0 байт/сек ]   Личеров: [ 1  | 0 байт/сек ]   DHT: [ 5 / 1 ]
Автор Сообщение

Модератор

С нами: 2 года 4 месяца
Сообщения: 3361
Россия

Сообщение 15 ноя 2020, 16:14 

[Цитировать]

Информация о фильме
Название: Ловец снов
Оригинальное название: Dreamkatcher
Год выхода: 2020
Жанр: Ужасы, триллер
Режиссер: Керри Харрис
В ролях: Рада Митчелл, Генри Томас, Лин Шэй, Жуль Уиллкокс, Джозеф Бишара, Финлэй Войтаг-Хиссонг, Дункан Фостер-Аллен, Дж. Кристиан Ингвордсен, Белла Мари Фучиле, Каллен Риера

О фильме: Совсем немного времени прошло после убийства жены Люка соседским мальчишкой в отдалённом лесном домике, но мужчина привозит туда свою новую пассию Гейл и сына Джоша. Ребёнка мучают страшные сны, в которых ему является мёртвая мама, а Гейл — детский психилог со стажем — изо всех сил пытается помочь мальчику. Однажды, наслушавшись рассказов соседки про ловцы снов, Джош крадёт у неё из сундука полезную, как он думал, для избавления от кошмаров вещь, но после этого его сны становятся ещё более реалистичными и пугающими.



Выпущено: США / Taylor Lane Productions
Продолжительность: 01:25:18
Озвучивание #1: Дублированное | iTunes
Озвучивание #2: Авторское (одноголосое) | Андрей Дольский

Файл
Формат: MKV
Качество: WEB-DL 1080p | AMAZON Version
Видео: MPEG-4 AVC, 7866 Kb/s, 1920x1080
Аудио #1: Russian: 48 kHz, AC3 Dolby Digital, 3/2 (L, C, R, l, r) + LFE ch, ~384 Kbps | DUB | iTunes
Аудио #2: Russian: 48 kHz, AC3 Dolby Digital, 3/2 (L, C, R, l, r) + LFE ch, ~448 Kbps | VO | Андрей Дольский
Аудио #3: English: 48 kHz, AC3 Dolby Digital, 3/2 (L, C, R, l, r) + LFE ch, ~640 Kbps | Original
Субтитры: Russian (Full, SDH), English (Full, SDH)
Дополнительно: Нет

Релиз от:

Video
ID: 1
Format: AVC
Format/Info: Advanced Video Codec
Format profile: [email protected]
Format settings: CABAC / 4 Ref Frames
Format settings, CABAC: Yes
Format settings, Reference: 4 frames
Codec ID: V_MPEG4/ISO/AVC
Duration: 1 h 25 min
Bit rate mode: Constant
Bit rate: 7 866 kb/s
Nominal bit rate: 10 000 kb/s
Width: 1 920 pixels
Height: 1 080 pixels
Display aspect ratio: 16:9
Frame rate mode: Constant
Frame rate: 23.976 (24000/1001) FPS
Color space: YUV
Chroma subsampling: 4:2:0
Bit depth: 8 bits
Scan type: Progressive
Bits/(Pixel*Frame): 0.158
Stream size: 4.69 GiB (84%)
Title: DREAMKATCHER_2020_WEB-DL_1080p_AMAZON-BLUEBIRD
Language: English
Default: Yes
Forced: No
Color range: Limited
Color primaries: BT.709
Transfer characteristics: BT.709
Matrix coefficients: BT.709

Audio #1
ID: 2
Format: AC-3
Format/Info: Audio Coding 3
Commercial name: Dolby Digital
Codec ID: A_AC3
Duration: 1 h 25 min
Bit rate mode: Constant
Bit rate: 384 kb/s
Channel(s): 6 channels
Channel layout: L R C LFE Ls Rs
Sampling rate: 48.0 kHz
Frame rate: 31.250 FPS (1536 SPF)
Compression mode: Lossy
Stream size: 234 MiB (4%)
Title: [DUB] DD 5.1 @ 384 kbps (iTunes)
Language: Russian
Service kind: Complete Main
Default: Yes
Forced: No

Audio #2
ID: 3
Format: AC-3
Format/Info: Audio Coding 3
Commercial name: Dolby Digital
Codec ID: A_AC3
Duration: 1 h 25 min
Bit rate mode: Constant
Bit rate: 448 kb/s
Channel(s): 6 channels
Channel layout: L R C LFE Ls Rs
Sampling rate: 48.0 kHz
Frame rate: 31.250 FPS (1536 SPF)
Compression mode: Lossy
Stream size: 273 MiB (5%)
Title: [VO] DD 5.1 @ 448 kbps (A.Dolskij)
Language: Russian
Service kind: Complete Main
Default: No
Forced: No

Audio #3
ID: 4
Format: AC-3
Format/Info: Audio Coding 3
Commercial name: Dolby Digital
Codec ID: A_AC3
Duration: 1 h 25 min
Bit rate mode: Constant
Bit rate: 640 kb/s
Channel(s): 6 channels
Channel layout: L R C LFE Ls Rs
Sampling rate: 48.0 kHz
Frame rate: 31.250 FPS (1536 SPF)
Compression mode: Lossy
Stream size: 390 MiB (7%)
Title: [ORIGINAL] DD 5.1 @ 640 kbps (Amazon)
Language: English
Service kind: Complete Main
Default: No
Forced: No

Text #1
ID: 5
Format: UTF-8
Codec ID: S_TEXT/UTF8
Codec ID/Info: UTF-8 Plain Text
Duration: 1 h 19 min
Bit rate: 69 b/s
Count of elements: 762
Stream size: 40.6 KiB (0%)
Title: Full-length
Language: Russian
Default: No
Forced: No

Text #2
ID: 6
Format: UTF-8
Codec ID: S_TEXT/UTF8
Codec ID/Info: UTF-8 Plain Text
Duration: 1 h 19 min
Bit rate: 80 b/s
Count of elements: 907
Stream size: 46.6 KiB (0%)
Title: SDH
Language: Russian
Default: No
Forced: No

Text #3
ID: 7
Format: UTF-8
Codec ID: S_TEXT/UTF8
Codec ID/Info: UTF-8 Plain Text
Duration: 1 h 11 min
Bit rate: 41 b/s
Count of elements: 747
Stream size: 21.8 KiB (0%)
Title: Full-length
Language: English
Default: No
Forced: No

Text #4
ID: 8
Format: UTF-8
Codec ID: S_TEXT/UTF8
Codec ID/Info: UTF-8 Plain Text
Duration: 1 h 17 min
Bit rate: 43 b/s
Count of elements: 856
Stream size: 24.3 KiB (0%)
Title: SDH
Language: English
Default: No
Forced: No

Download
Для скачивания .torrent файлов необходима регистрация
Сайт не распространяет и не хранит электронные версии произведений, а лишь предоставляет доступ к создаваемому пользователями каталогу ссылок на торрент-файлы, которые содержат только списки хеш-сумм

Страница 1 из 1

Ответить на тему

   Похожие торренты   Торрент 




tracker_crontracker_cron