Регистрация ·  Логин: Пароль: Запомнить   · Забыли пароль?




Ответить на тему
Статистика раздачи
Размер: 12.26 ГБ | Зарегистрирован: 15 ноя 2020, 16:14 | .torrent скачан: 0 раз(а), DHT: [ 431 ] раз(а)
Сидеров: [ 17  | 0 байт/сек ]   Личеров: [ 3  | 0 байт/сек ]   DHT: [ 17 / 3 ]
Автор Сообщение

Модератор

С нами: 2 года 4 месяца
Сообщения: 3361
Россия

Сообщение 15 ноя 2020, 16:14 

[Цитировать]


Информация о фильме
Название: Антебеллум
Оригинальное название: Antebellum
Год выпуска: 2020
Жанр: Триллер, драма
Выпущено: США, Lionsgate, QC Entertainment
Режиссер: Джерард Буш, Кристофер Ренц
В ролях: Жанель Монэ, Марке Ричардсон II, Эрик Ланж, Джек Хьюстон, Кирси Клемонс, Тонгай Арнольд Чириса, Габури Сидибе, Роберт Арамайо, Джена Мэлоун, Лили Коулз
О фильме: Известная писательница, активистка и борец за права чёрных женщин Вероника Хенли оказывается в ужасающей реальности. Теперь она - бесправная рабыня на южной плантации, и в компании таких же бедолаг вынуждена ежедневно собирать хлопок и беспрекословно терпеть издевательства белых надсмотрщиков. Выбраться из этого ада не так-то просто, а всех пойманных беглецов ждёт жестокая кара.

Качество: BDRip (1080p)
Видео: MPEG-4 AVC, 14658 Kбит/с, 1920x804, 23.976 Кадр/c
Аудио: Русский (AC3, 6 ch, 384 Кбит/с), английский (DTS, 6 ch, 1509 Кбит/с)
Размер: 12.26 ГБ
Продолжительность: 01:46:00
Перевод: Дублированный
Субтитры: Английские
Озвучивание - Дублированное (iTunes)
Сохранены оригинальные чаптеры как на Blu-Ray.
x264 [info]: frame I:808 Avg QP:15.29 size:251549
x264 [info]: frame P:31338 Avg QP:17.22 size:128344
x264 [info]: frame B:120351 Avg QP:19.38 size: 61710
x264 [info]: consecutive B-frames: 2.0% 3.1% 5.8% 12.5% 11.3% 51.1% 4.7% 1.3% 2.2% 4.0% 1.9%
x264 [info]: mb I I16..4: 12.6% 78.1% 9.4%
x264 [info]: mb P I16..4: 1.3% 32.6% 1.5% P16..4: 20.8% 26.5% 10.7% 1.5% 0.1% skip: 4.9%
x264 [info]: mb B I16..4: 0.2% 5.3% 0.2% B16..8: 38.1% 22.6% 5.5% direct:10.4% skip:17.6% L0:46.3% L1:41.8% BI:11.9%
x264 [info]: 8x8 transform intra:91.4% inter:54.8%
x264 [info]: direct mvs spatial:93.8% temporal:6.2%
x264 [info]: coded y,uvDC,uvAC intra: 94.2% 85.1% 70.9% inter: 51.1% 38.0% 15.4%
x264 [info]: i16 v,h,dc,p: 33% 9% 19% 39%
x264 [info]: i8 v,h,dc,ddl,ddr,vr,hd,vl,hu: 8% 6% 19% 10% 12% 11% 11% 11% 12%
x264 [info]: i4 v,h,dc,ddl,ddr,vr,hd,vl,hu: 43% 6% 12% 6% 7% 7% 7% 6% 6%
x264 [info]: i8c dc,h,v,p: 52% 19% 15% 14%
x264 [info]: Weighted P-Frames: Y:5.2% UV:3.8%
x264 [info]: ref P L0: 43.3% 9.4% 25.8% 10.0% 10.1% 1.3% 0.0%
x264 [info]: ref B L0: 66.2% 23.5% 8.2% 2.1%
x264 [info]: ref B L1: 89.3% 10.7%
x264 [info]: kb/s:14655.90

Общее
Уникальный идентификатор : 199852543013428141123189314719166450375 (0x965A331FE06FCD199E5279FFA9D74AC7)
Полное имя : D:ЗагрузкиAntebellum.2020.x264.BDRip.(1080p).OlLanDGroup.mkv
Формат : Matroska
Версия формата : Version 4 / Version 2
Размер файла : 12,3 Гбайт
Продолжительность : 1 ч. 46 м.
Общий поток : 16,6 Мбит/сек
Название фильма : Антебеллум.2020.Rip by: ollan
Дата кодирования : UTC 2020-11-01 12:23:32
Программа кодирования : mkvmerge v6.5.0 ('Isn't she lovely') built on Oct 20 2013 12:50:05
Библиотека кодирования : libebml v1.3.0 + libmatroska v1.4.1
Обложка : Yes
Attachments : Cover - Antebellum.png / Cover - Antebellum.png

Видео
Идентификатор : 1
Формат : AVC
Формат/Информация : Advanced Video Codec
Профиль формата : [email protected]
Настройки формата : CABAC / 5 Ref Frames
Параметр CABAC формата : Да
Параметр ReFrames формата : 5 кадров
Идентификатор кодека : V_MPEG4/ISO/AVC
Продолжительность : 1 ч. 46 м.
Битрейт : 14,7 Мбит/сек
Ширина : 1920 пикселей
Высота : 804 пикселя
Соотношение сторон : 2,40:1
Режим частоты кадров : Постоянный
Частота кадров : 23,976 (24000/1001) кадра/сек
Цветовое пространство : YUV
Субдискретизация насыщенности : 4:2:0
Битовая глубина : 8 бит
Тип развёртки : Прогрессивная
Бит/(Пиксели*Кадры) : 0.396
Размер потока : 10,6 Гбайт (87%)
Библиотека кодирования : x264 core 146 r2538 121396c
Настройки программы : cabac=1 / ref=5 / deblock=1:-3:-3 / analyse=0x3:0x133 / me=umh / subme=11 / psy=1 / psy_rd=0.90:0.05 / mixed_ref=1 / me_range=64 / chroma_me=1 / trellis=2 / 8x8dct=1 / cqm=0 / deadzone=21,11 / fast_pskip=0 / chroma_qp_offset=-3 / threads=12 / lookahead_threads=3 / sliced_threads=0 / nr=0 / decimate=0 / interlaced=0 / bluray_compat=0 / constrained_intra=0 / bframes=10 / b_pyramid=2 / b_adapt=2 / b_bias=0 / direct=3 / weightb=1 / open_gop=0 / weightp=2 / keyint=240 / keyint_min=23 / scenecut=40 / intra_refresh=0 / rc_lookahead=40 / rc=2pass / mbtree=0 / bitrate=14658 / ratetol=1.0 / qcomp=0.60 / qpmin=0 / qpmax=69 / qpstep=4 / cplxblur=20.0 / qblur=0.5 / vbv_maxrate=50000 / vbv_bufsize=62500 / nal_hrd=none / filler=0 / ip_ratio=1.40 / pb_ratio=1.30 / aq=1:1.00
Язык : English
Default : Да
Forced : Нет

Аудио #1
Идентификатор : 2
Формат : AC-3
Формат/Информация : Audio Coding 3
Идентификатор кодека : A_AC3
Продолжительность : 1 ч. 46 м.
Вид битрейта : Постоянный
Битрейт : 384 Кбит/сек
Каналы : 6 каналов
Расположение каналов : Front: L C R, Side: L R, LFE
Частота : 48,0 КГц
Частота кадров : 31,250 кадров/сек (1536 SPF)
Битовая глубина : 16 бит
Метод сжатия : С потерями
Размер потока : 291 Мбайт (2%)
Заголовок : iTunes
Язык : Russian
Service kind : Complete Main
Default : Да
Forced : Нет

Аудио #2
Идентификатор : 3
Формат : DTS
Формат/Информация : Digital Theater Systems
Идентификатор кодека : A_DTS
Продолжительность : 1 ч. 46 м.
Вид битрейта : Постоянный
Битрейт : 1509 Кбит/сек
Каналы : 6 каналов
Расположение каналов : Front: L C R, Side: L R, LFE
Частота : 48,0 КГц
Частота кадров : 93,750 кадра/сек (512 SPF)
Битовая глубина : 24 бит
Метод сжатия : С потерями
Размер потока : 1,12 Гбайт (9%)
Язык : English
Default : Нет
Forced : Нет

Текст
Идентификатор : 4
Формат : UTF-8
Идентификатор кодека : S_TEXT/UTF8
Идентификатор кодека/Информация : UTF-8 Plain Text
Заголовок : Full
Язык : English
Default : Нет
Forced : Нет

Меню
00:00:00.000 : en:Chapter 01
00:07:53.347 : en:Chapter 02
00:12:54.648 : en:Chapter 03
00:18:24.603 : en:Chapter 04
00:22:50.577 : en:Chapter 05
00:28:19.822 : en:Chapter 06
00:35:25.456 : en:Chapter 07
00:40:31.929 : en:Chapter 08
00:47:07.824 : en:Chapter 09
00:53:07.017 : en:Chapter 10
00:59:17.428 : en:Chapter 11
01:07:22.288 : en:Chapter 12
01:13:17.476 : en:Chapter 13
01:18:37.295 : en:Chapter 14
01:24:42.285 : en:Chapter 15
01:32:54.819 : en:Chapter 16





Релиз от: Rip by:

Download
Для скачивания .torrent файлов необходима регистрация
Сайт не распространяет и не хранит электронные версии произведений, а лишь предоставляет доступ к создаваемому пользователями каталогу ссылок на торрент-файлы, которые содержат только списки хеш-сумм

Страница 1 из 1

Ответить на тему

   Похожие торренты   Торрент 




tracker_crontracker_cron