Регистрация ·  Логин: Пароль: Запомнить   · Забыли пароль?




Ответить на тему
Статистика раздачи
Размер: 3.71 ГБ | Зарегистрирован: 15 ноя 2020, 16:13 | .torrent скачан: 0 раз(а), DHT: [ 10 ] раз(а)
Сидеров: [ 5  | 0 байт/сек ]   Личеров: [ 0  | 0 байт/сек ]   DHT: [ 5 / 0 ]
Автор Сообщение

Модератор

С нами: 2 года 4 месяца
Сообщения: 3361
Россия

Сообщение 15 ноя 2020, 16:13 

[Цитировать]


Название: Поезд в Пусан 2: Полуостров
Оригинальное название: Train to Busan 2 / Bando
Год выхода: 2020
Жанр: ужасы, триллер, боевик
Режиссер: Сан Хо Ён
В ролях: Дон Вон Кан, Чон Хён Ли, Рэ Ли, Хэ Хё Квон, Мин Чжэ Ким (I), Гё Хван Ку, До Юн Ким, Ё Вон Ли, Гю Бэк Ким, У Чжин Мун, Со Ён Чан, Си Вон Чха, Тхэ Джун Ким, Ён Гён Юн, Мин Сон Ким, Се Джун Пак, Хи Чхоль Син, Дэниэл Джои Олбрайт

О фильме: Через четыре года после вспышки страшного вируса, распространение которого Южная Корея сдержать не смогла, то, что осталось от страны, находится в блокаде, а полчища зомби разгуливают по всему полуострову. Бывший военный в составе спецотряда отправляется в закрытую зону, чтобы отыскать припрятанные деньги, и теперь ему предстоит пробираться по жуткому миру, где помимо означенной угрозы опасность представляют и люди, устраивающие жестокие игры на выживание.



Страна: Корея Южная
Студия: Movic Comics, Next Entertainment World, RedPeter Film
Продолжительность: 01:55:35
Перевод: Дублированный | iTunes

Формат: MKV
Качество: BDRip 720p
Видео: MPEG-4 AVC, 1280x536 (2.40:1), 24.000 fps, 3461 Kbps, 0.210 bit/pixel
Аудио #01: 48 kHz, AC3, 5.1, 384 Kbps | iTunes | RUS |
Аудио #02: 48 kHz, AC3, 5.1, 640 Kbps | Оригинал | ENG |
Субтитры: Русские (Full), английские
General
Unique ID : 252822551067204654253920749834735412385 (0xBE33DA27EC2D77738A697E7C98FB64A1)
Complete name : G:Train.to.Busan.Presents.Peninsula.2020.BluRay.ExKinoRay.mkv
Format : Matroska
Format version : Version 2
File size : 3.71 GiB
Duration : 1 h 55 min
Overall bit rate : 4 576 kb/s
Movie name : Train to Busan Presents Peninsula 2020 from ExKinoRay
Encoded date : UTC 2020-11-15 05:03:13
Writing application : mkvmerge v5.6.0 ('Kenya Kane') built on May 27 2012 16:44:04
Writing library : libebml v1.2.3 + libmatroska v1.3.0

Video
ID : 1
Format : AVC
Format/Info : Advanced Video Codec
Format profile : [email protected]
Format settings, CABAC : Yes
Format settings, ReFrames : 12 frames
Codec ID : V_MPEG4/ISO/AVC
Duration : 1 h 55 min
Bit rate : 3 461 kb/s
Width : 1 280 pixels
Height : 536 pixels
Display aspect ratio : 2.40:1
Frame rate mode : Constant
Frame rate : 24.000 FPS
Color space : YUV
Chroma subsampling : 4:2:0
Bit depth : 8 bits
Scan type : Progressive
Bits/(Pixel*Frame) : 0.210
Stream size : 2.80 GiB (76%)
Title : iFT
Writing library : x264 core 157 r2938 2b00a84 [email protected] Mod
Encoding settings : cabac=1 / ref=12 / deblock=1:-3:-3 / analyse=0x3:0x133 / me=umh / subme=10 / psy=1 / psy_rd=1.05:0.00 / mixed_ref=1 / me_range=32 / chroma_me=1 / trellis=2 / 8x8dct=1 / cqm=0 / deadzone=21,11 / fast_pskip=0 / chroma_qp_offset=-2 / threads=12 / lookahead_threads=2 / sliced_threads=0 / nr=0 / decimate=0 / interlaced=0 / bluray_compat=0 / constrained_intra=0 / bframes=8 / b_pyramid=2 / b_adapt=2 / b_bias=0 / direct=3 / weightb=1 / open_gop=0 / weightp=2 / keyint=250 / keyint_min=24 / scenecut=40 / intra_refresh=0 / rc_lookahead=250 / rc=crf / mbtree=0 / crf=16.8 / qcomp=0.60 / qpmin=0 / qpmax=69 / qpstep=4 / vbv_maxrate=62500 / vbv_bufsize=78125 / crf_max=0.0 / nal_hrd=none / filler=0 / ip_ratio=1.30 / pb_ratio=1.20 / aq=3:0.80
Language : English
Default : Yes
Forced : No
Color range : Limited
Color primaries : BT.709
Matrix coefficients : BT.709

Audio #1
ID : 2
Format : AC-3
Format/Info : Audio Coding 3
Mode extension : CM (complete main)
Format settings, Endianness : Big
Codec ID : A_AC3
Duration : 1 h 55 min
Bit rate mode : Constant
Bit rate : 384 kb/s
Channel(s) : 6 channels
Channel positions : Front: L C R, Side: L R, LFE
Sampling rate : 48.0 kHz
Frame rate : 31.250 FPS (1536 spf)
Compression mode : Lossy
Stream size : 318 MiB (8%)
Title : iTunes
Language : Russian
Default : No
Forced : No

Audio #2
ID : 3
Format : AC-3
Format/Info : Audio Coding 3
Mode extension : CM (complete main)
Format settings, Endianness : Big
Codec ID : A_AC3
Duration : 1 h 55 min
Bit rate mode : Constant
Bit rate : 640 kb/s
Channel(s) : 6 channels
Channel positions : Front: L C R, Side: L R, LFE
Sampling rate : 48.0 kHz
Frame rate : 31.250 FPS (1536 spf)
Compression mode : Lossy
Stream size : 531 MiB (14%)
Language : English
Default : No
Forced : No

Text #1
ID : 4
Format : UTF-8
Codec ID : S_TEXT/UTF8
Codec ID/Info : UTF-8 Plain Text
Language : Russian
Default : No
Forced : No

Text #2
ID : 5
Format : UTF-8
Codec ID : S_TEXT/UTF8
Codec ID/Info : UTF-8 Plain Text
Language : English
Default : No
Forced : No

Menu
00:00:00.000 : en:Chapter 01
00:09:45.542 : en:Chapter 02
00:18:59.542 : en:Chapter 03
00:27:25.458 : en:Chapter 04
00:39:40.542 : en:Chapter 05
00:46:31.958 : en:Chapter 06
00:58:44.500 : en:Chapter 07
01:08:44.708 : en:Chapter 08
01:18:08.333 : en:Chapter 09
01:29:02.333 : en:Chapter 10
01:39:40.917 : en:Chapter 11
01:51:12.083 : en:Chapter 12



Релиз от:

Автор релиза:

Download
Для скачивания .torrent файлов необходима регистрация
Сайт не распространяет и не хранит электронные версии произведений, а лишь предоставляет доступ к создаваемому пользователями каталогу ссылок на торрент-файлы, которые содержат только списки хеш-сумм

Страница 1 из 1

Ответить на тему

   Похожие торренты   Торрент 




tracker_crontracker_cron