Регистрация ·  Логин: Пароль: Запомнить   · Забыли пароль?




Ответить на тему
Статистика раздачи
Размер: 2.16 ГБ | Зарегистрирован: 15 ноя 2020, 16:13 | .torrent скачан: 0 раз(а), DHT: [ 300 ] раз(а)
Сидеров: [ 6  | 0 байт/сек ]   Личеров: [ 0  | 0 байт/сек ]   DHT: [ 6 / 0 ]
Автор Сообщение

Модератор

С нами: 2 года 4 месяца
Сообщения: 3361
Россия

Сообщение 15 ноя 2020, 16:13 

[Цитировать]

Разыскивается / Target Number One / Most Wanted

Информация о фильме:
Название: Разыскивается
Оригинальное название: Target Number One / Most Wanted
Год выхода: 2020
Жанр: Триллер, криминал, биография
Режиссер: Дэниэл Роби
В ролях: Джош Хартнетт, Стивен МакХэтти, Джим Гэффиган, Дж.С. МакКензи, Антуан-Оливье Пилон, Роз-Мари Перро, Дон МакКеллар, Доменик Ди Роза, Марк Камачо, Ланиса Доун
Описание: Фильм основан на реальных событиях. 1989. Канадский журналист по имени Виктор Малерк прикладывает все возможные силы, чтобы распутать очень странное дело молодого бывшего наркомана, которого зовут Даниэль. Парня обвиняют в крупных поставках героина, в связи с чем он был отправлен на столетний срок в тайскую тюрьму. Малерк стал понимать, что в этом деле присутствует крупный заговор и он старательно делает все возможное, чтобы спасти подставленного парня от заключения и страшных пыток...

Страна: Канада
Студия: Caramel Film, Goldrush Entertainment
Продолжительность: 02:04:57
Перевод: Дублированный

Информация о файле:
Кодек: AVC
Формат: MKV
Качество: HDRip-AVC
Видео: MPEG-4 AVC, 1024x428 (2.40:1), 23.976 fps, 1643kbps, 0.156
Аудио RU: AC3, 6 ch, 48 kHz, 384 kbps
Аудио EN: AC3, 6 ch, 48 kHz, 448 kbps
Субтитры: Русские (Forced, full), английские
Навигация по главам: Да


x264 info: frame I:1317 Avg QP:15.54 size: 54577
x264 info: frame P:43001 Avg QP:19.34 size: 17344
x264 info: frame B:135453 Avg QP:20.97 size: 5332
x264 info: consecutive B-frames: 3.5% 4.6% 12.5% 17.7% 16.0% 32.4% 6.1% 2.5% 2.6% 0.4% 0.4% 0.5% 0.8%
General
Unique ID : 261043342045754780138362114278166804876 (0xC4631E71BAE8F6A9D62DDC477BA2B98C)
Complete name : D:uTorrentРипы_от_wolf1245_MediaBitTarget Number One 2020 HDRip-AVC from wolf1245 & MediaBit.mkv
Format : Matroska
Format version : Version 4
File size : 2.16 GiB
Duration : 2 h 4 min
Overall bit rate : 2 477 kb/s
Movie name : Target Number One 2020 HDRip-AVC from wolf1245 & MediaBit
Encoded date : UTC 2020-11-14 17:28:17
Writing application : mkvmerge v51.0.0 ('I Wish') 64-bit
Writing library : libebml v1.4.0 + libmatroska v1.6.2
Video
ID : 1
Format : AVC
Format/Info : Advanced Video Codec
Format profile : [email protected]
Format settings : CABAC / 12 Ref Frames
Format settings, CABAC : Yes
Format settings, Reference frames : 12 frames
Codec ID : V_MPEG4/ISO/AVC
Duration : 2 h 4 min
Bit rate : 1 643 kb/s
Width : 1 024 pixels
Height : 428 pixels
Display aspect ratio : 2.40:1
Frame rate mode : Constant
Frame rate : 23.976 (24000/1001) FPS
Color space : YUV
Chroma subsampling : 4:2:0
Bit depth : 8 bits
Scan type : Progressive
Bits/(Pixel*Frame) : 0.156
Stream size : 1.43 GiB (66%)
Title : wolf1245 & MediaBit
Writing library : x264 core 157 r2958 57baac4
Encoding settings : cabac=1 / ref=12 / deblock=1:-3:-2 / analyse=0x3:0x133 / me=umh / subme=11 / psy=1 / psy_rd=1.03:0.03 / mixed_ref=1 / me_range=48 / chroma_me=1 / trellis=2 / 8x8dct=1 / cqm=0 / deadzone=21,11 / fast_pskip=0 / chroma_qp_offset=-3 / threads=10 / lookahead_threads=2 / sliced_threads=0 / nr=0 / decimate=0 / interlaced=0 / bluray_compat=0 / constrained_intra=0 / bframes=12 / b_pyramid=2 / b_adapt=2 / b_bias=0 / direct=3 / weightb=1 / open_gop=0 / weightp=2 / keyint=240 / keyint_min=24 / scenecut=40 / intra_refresh=0 / rc_lookahead=80 / rc=2pass / mbtree=0 / bitrate=1643 / ratetol=1.0 / qcomp=0.60 / qpmin=0 / qpmax=69 / qpstep=4 / cplxblur=20.0 / qblur=0.5 / vbv_maxrate=50000 / vbv_bufsize=62500 / nal_hrd=none / filler=0 / ip_ratio=1.40 / pb_ratio=1.30 / aq=2:0.90
Language : English
Default : Yes
Forced : No
Audio #1
ID : 2
Format : AC-3
Format/Info : Audio Coding 3
Commercial name : Dolby Digital
Codec ID : A_AC3
Duration : 2 h 4 min
Bit rate mode : Constant
Bit rate : 384 kb/s
Channel(s) : 6 channels
Channel layout : L R C LFE Ls Rs
Sampling rate : 48.0 kHz
Frame rate : 31.250 FPS (1536 SPF)
Compression mode : Lossy
Stream size : 343 MiB (15%)
Title : DUB
Language : Russian
Service kind : Complete Main
Default : Yes
Forced : No
Audio #2
ID : 3
Format : AC-3
Format/Info : Audio Coding 3
Commercial name : Dolby Digital
Codec ID : A_AC3
Duration : 2 h 4 min
Bit rate mode : Constant
Bit rate : 448 kb/s
Channel(s) : 6 channels
Channel layout : L R C LFE Ls Rs
Sampling rate : 48.0 kHz
Frame rate : 31.250 FPS (1536 SPF)
Compression mode : Lossy
Stream size : 400 MiB (18%)
Title : Original
Language : English
Service kind : Complete Main
Default : No
Forced : No
Text #1
ID : 4
Format : UTF-8
Codec ID : S_TEXT/UTF8
Codec ID/Info : UTF-8 Plain Text
Duration : 1 h 57 min
Bit rate : 7 b/s
Count of elements : 104
Stream size : 6.07 KiB (0%)
Title : Forced
Language : Russian
Default : No
Forced : No
Text #2
ID : 5
Format : UTF-8
Codec ID : S_TEXT/UTF8
Codec ID/Info : UTF-8 Plain Text
Duration : 1 h 58 min
Bit rate : 94 b/s
Count of elements : 1468
Stream size : 81.4 KiB (0%)
Title : Full [FOCS]
Language : Russian
Default : No
Forced : No
Text #3
ID : 6
Format : UTF-8
Codec ID : S_TEXT/UTF8
Codec ID/Info : UTF-8 Plain Text
Duration : 1 h 57 min
Bit rate : 55 b/s
Count of elements : 1342
Stream size : 47.5 KiB (0%)
Language : English
Default : No
Forced : No
Menu
00:00:00.000 : :00:00:00.000
00:10:14.239 : :00:10:14.239
00:20:07.039 : :00:20:07.039
00:26:04.396 : :00:26:04.396
00:32:44.462 : :00:32:44.462
00:39:54.309 : :00:39:54.309
00:47:54.663 : :00:47:54.663
00:53:12.064 : :00:53:12.064
01:01:20.135 : :01:01:20.135
01:07:06.105 : :01:07:06.105
01:12:54.704 : :01:12:54.704
01:20:55.809 : :01:20:55.809
01:32:19.617 : :01:32:19.617
01:39:11.195 : :01:39:11.195
01:44:21.630 : :01:44:21.630
01:51:39.318 : :01:51:39.318
01:56:06.001 : :01:56:06.001
02:00:46.448 : :02:00:46.448

Релиз от: & &

Download
Для скачивания .torrent файлов необходима регистрация
Сайт не распространяет и не хранит электронные версии произведений, а лишь предоставляет доступ к создаваемому пользователями каталогу ссылок на торрент-файлы, которые содержат только списки хеш-сумм

Страница 1 из 1

Ответить на тему

   Похожие торренты   Торрент 




tracker_crontracker_cron