Регистрация ·  Логин: Пароль: Запомнить   · Забыли пароль?




Ответить на тему
Статистика раздачи
Размер: 3.36 ГБ | Зарегистрирован: 15 ноя 2020, 16:13 | .torrent скачан: 0 раз(а), DHT: [ 30074 ] раз(а)
Сидеров: [ 149  | 0 байт/сек ]   Личеров: [ 0  | 0 байт/сек ]   DHT: [ 149 / 0 ]
Автор Сообщение

Модератор

С нами: 2 года 4 месяца
Сообщения: 3361
Россия

Сообщение 15 ноя 2020, 16:13 

[Цитировать]


Информация о фильме
Название: Гренландия
Оригинальное название: Greenland
Год выхода: 2020
Жанр: боевик
Режиссер: Рик Роман Во / Ric Roman Waugh
В ролях: Джерард Батлер, Морена Баккарин, Роджер Дэйл Флойд, Скотт Гленн, Рендал Гонсалес, Рик Паскуалоне, Никола Ламбо, Алан Петрушевски, Скотт Пойтресс, Клер Бронсон, Гари Викс, Трэйси Боннер, Меррин Данги

О фильме:
Огромная комета мчится к Земле и угрожает уничтожить планету. Конец света кажется неизбежным. Единственное безопасное место – бункер в далекой Гренландии. Джон с семьёй отправляется в опасное путешествие, которое осложняется не только разрушительными последствиями приближения кометы, но и паникой обезумевших людей.



Страна: США, Великобритания
Продолжительность: 01:59:43
Перевод: Профессиональный (полное дублирование) Line
Субтитры: Английские, голландские
Оригинальная аудиодорожка: Английская

Файл
Качество: WEB-DL 720p [AMZN]
Формат: MKV
Видео: 1248x520, 23.976 fps, [email protected], ~3188 kb/s, 0.205 bit/pixel
Аудио #1: AC3, 2 ch, ~192 kbps (RUS)
Аудио #2: E-AC-3, 6 ch, ~640 kbps (ENG)
Формат субтитров: softsub (SRT)

***Релиз от: -=DoMiNo=-

General
Format : Matroska
Format version : Version 4
File size : 3.36 GiB
Duration : 1 h 59 min
Overall bit rate : 4 023 kb/s
Movie name : Greenland.2020.720p.AMZN.WEB-DL.DDP5.1.H.264-NTG
Encoded date : UTC 2020-11-14 11:41:02
Writing application : mkvmerge v8.3.0 ('Over the Horizon') 64bit
Writing library : libebml v1.3.1 + libmatroska v1.4.2
Cover : Yes
Attachments : Cover.jpg / Cover 2.jpg

Video
ID : 1
Format : AVC
Format/Info : Advanced Video Codec
Format profile : [email protected]
Format settings : CABAC / 4 Ref Frames
Format settings, CABAC : Yes
Format settings, Reference : 4 frames
Codec ID : V_MPEG4/ISO/AVC
Duration : 1 h 59 min
Bit rate mode : Constant
Bit rate : 3 188 kb/s
Nominal bit rate : 4 000 kb/s
Width : 1 248 pixels
Height : 520 pixels
Display aspect ratio : 2.40:1
Frame rate mode : Constant
Frame rate : 23.976 (24000/1001) FPS
Color space : YUV
Chroma subsampling : 4:2:0
Bit depth : 8 bits
Scan type : Progressive
Bits/(Pixel*Frame) : 0.205
Stream size : 2.67 GiB (79%)
Title : -=DoMiNo=-
Language : English
Default : Yes
Forced : No
Color range : Limited
Color primaries : BT.709
Transfer characteristics : BT.709
Matrix coefficients : BT.709

Audio #1
ID : 2
Format : AC-3
Format/Info : Audio Coding 3
Commercial name : Dolby Digital
Codec ID : A_AC3
Duration : 1 h 59 min
Bit rate mode : Constant
Bit rate : 192 kb/s
Channel(s) : 2 channels
Channel layout : L R
Sampling rate : 48.0 kHz
Frame rate : 31.250 FPS (1536 SPF)
Compression mode : Lossy
Stream size : 164 MiB (5%)
Title : DUB_[Line]
Language : Russian
Service kind : Complete Main
Default : Yes
Forced : No

Audio #2
ID : 3
Format : E-AC-3
Format/Info : Enhanced AC-3
Commercial name : Dolby Digital Plus
Codec ID : A_EAC3
Duration : 1 h 59 min
Bit rate mode : Constant
Bit rate : 640 kb/s
Channel(s) : 6 channels
Channel layout : L R C LFE Ls Rs
Sampling rate : 48.0 kHz
Frame rate : 31.250 FPS (1536 SPF)
Compression mode : Lossy
Stream size : 548 MiB (16%)
Language : English
Service kind : Complete Main
Default : No
Forced : No

Text #1
ID : 4
Format : UTF-8
Codec ID : S_TEXT/UTF8
Codec ID/Info : UTF-8 Plain Text
Duration : 1 h 52 min
Bit rate : 70 b/s
Count of elements : 1758
Stream size : 58.3 KiB (0%)
Title : SDH
Language : English
Default : No
Forced : No

Text #2
ID : 5
Format : UTF-8
Codec ID : S_TEXT/UTF8
Codec ID/Info : UTF-8 Plain Text
Duration : 1 h 52 min
Bit rate : 40 b/s
Count of elements : 918
Stream size : 33.6 KiB (0%)
Language : Dutch
Default : No
Forced : No

Menu
00:00:00.000 : en:Amazon Original
00:00:06.000 : en:Studio Logos
00:00:53.000 : en:Opening Credits
00:01:08.000 : en:Construction site
00:02:25.000 : en:Title Sequence
00:02:28.000 : en:An uncomfortable return home
00:06:06.000 : en:Father son time
00:09:05.000 : en:Birthday party prep
00:11:06.000 : en:Presidential alert
00:14:16.000 : en:Clark hits
00:18:59.000 : en:Tough decisions
00:22:42.000 : en:Driving to the base
00:26:40.000 : en:Trying to get on the plane
00:37:58.000 : en:Chaos at the base
00:42:30.000 : en:Looters
00:47:39.000 : en:Broken phone calls
00:50:19.000 : en:A ride up north
00:53:37.000 : en:Ralph has an idea
00:56:54.000 : en:Hazards on the road
01:03:29.000 : en:Lying to get on the base
01:07:03.000 : en:Searching for Nathan
01:11:38.000 : en:Reunited
01:19:42.000 : en:Making a plan
01:22:21.000 : en:Making amends
01:27:40.000 : en:Driving to Canada
01:34:19.000 : en:Arrival at the airport
01:41:15.000 : en:Arrival in Greenland
01:46:08.000 : en:Getting to the bunker | Flashes of life
01:51:06.000 : en:The next chapter
01:54:12.000 : en:End Credits

Download
Для скачивания .torrent файлов необходима регистрация
Сайт не распространяет и не хранит электронные версии произведений, а лишь предоставляет доступ к создаваемому пользователями каталогу ссылок на торрент-файлы, которые содержат только списки хеш-сумм

Страница 1 из 1

Ответить на тему

   Похожие торренты   Торрент 




tracker_crontracker_cron