Регистрация ·  Логин: Пароль: Запомнить   · Забыли пароль?




Ответить на тему
Статистика раздачи
Размер: 2.24 ГБ | Зарегистрирован: 15 ноя 2020, 16:12 | .torrent скачан: 0 раз(а), DHT: [ 0 ] раз(а)
Сидеров: [ 0  | 0 байт/сек ]   Личеров: [ 0  | 0 байт/сек ]   DHT: [ 0 / 0 ]
Автор Сообщение

Модератор

С нами: 2 года 4 месяца
Сообщения: 3361
Россия

Сообщение 15 ноя 2020, 16:12 

[Цитировать]


Информация о фильме
Название: Кто не спрятался
Оригинальное название: The Rental
Год выхода: 2020
Жанр: Ужасы, триллер
Режиссер: Дэйв Франко
В ролях: Дэн Стивенс, Элисон Бри, Тоби Хасс, Шейла Ванд, Джереми Аллен Уайт, Конни Веллман, Чанк, Энтони Молинари, Эмити Бэйкон, Чейз Баркер

О фильме:
Вы снимали жилье через интернет? Смотрели красивые картинки на сайте и представляли идеальный отпуск? Две молодые пары решили провести выходные на берегу океана и арендовали роскошную виллу. Они не знали, что в каждой комнате установлены камеры, и за ними пристально следят.


Страна: США
Студия: Black Bear Pictures
Продолжительность: 01:28:17
Перевод: Дублированный, Aвторский

Файл
Кодек: AVC
Качество: WEB-DL 720p | AMZN
Видео: MPEG-4 AVC, 2221 Kбит/с, 1248x520, 23.976 кадр/с
Аудио #1: Русский (АС3, 6 ch, 384 Кбит/с, 48.0 KHz) Профессиональный (дублированный) iTunes
Аудио #2: Русский (АС3, 6 ch, 384 Кбит/с, 48.0 KHz) Aвторский (одноголосый, закадровый) А.Важенин
Аудио #3: Английский (АС3, 6 ch, 640 Кбит/с, 48.0 KHz)
Субтитры: английские
Источник: The.Rental.2020.720p.AMZN.WEB-DL.DDP5.1.H.264-NTG
General
Unique ID : 192545297308762219322617478885657523808 (0x90DAE0187F22C37C972995AAFC93B660)
Complete name : The.Rental.2020.AMZN.WEB-DL.720p.mkv
Format : Matroska
Format version : Version 4
File size : 2.24 GiB
Duration : 1 h 28 min
Overall bit rate : 3 629 kb/s
Encoded date : UTC 2020-11-13 19:22:32
Writing application : mkvmerge v7.1.0 ('Good Love') 64bit built on Jul 27 2014 13:06:55
Writing library : libebml v1.3.0 + libmatroska v1.4.1

Video
ID : 1
Format : AVC
Format/Info : Advanced Video Codec
Format profile : [email protected]
Format settings : CABAC / 4 Ref Frames
Format settings, CABAC : Yes
Format settings, Reference fra : 4 frames
Codec ID : V_MPEG4/ISO/AVC
Duration : 1 h 28 min
Bit rate mode : Constant
Bit rate : 2 221 kb/s
Nominal bit rate : 4 000 kb/s
Width : 1 248 pixels
Height : 520 pixels
Display aspect ratio : 2.40:1
Frame rate mode : Constant
Frame rate : 23.976 (24000/1001) FPS
Color space : YUV
Chroma subsampling : 4:2:0
Bit depth : 8 bits
Scan type : Progressive
Bits/(Pixel*Frame) : 0.143
Stream size : 1.37 GiB (61%)
Language : English
Default : Yes
Forced : No
Color range : Limited
Color primaries : BT.709
Transfer characteristics : BT.709
Matrix coefficients : BT.709

Audio #1
ID : 2
Format : AC-3
Format/Info : Audio Coding 3
Commercial name : Dolby Digital
Codec ID : A_AC3
Duration : 1 h 28 min
Bit rate mode : Constant
Bit rate : 384 kb/s
Channel(s) : 6 channels
Channel layout : L R C LFE Ls Rs
Sampling rate : 48.0 kHz
Frame rate : 31.250 FPS (1536 SPF)
Compression mode : Lossy
Stream size : 243 MiB (11%)
Title : DUB | iTunes
Language : Russian
Service kind : Complete Main
Default : Yes
Forced : No

Audio #2
ID : 3
Format : AC-3
Format/Info : Audio Coding 3
Commercial name : Dolby Digital
Codec ID : A_AC3
Duration : 1 h 28 min
Bit rate mode : Constant
Bit rate : 384 kb/s
Channel(s) : 6 channels
Channel layout : L R C LFE Ls Rs
Sampling rate : 48.0 kHz
Frame rate : 31.250 FPS (1536 SPF)
Compression mode : Lossy
Stream size : 242 MiB (11%)
Title : А.Важенин
Language : Russian
Service kind : Complete Main
Default : No
Forced : No

Audio #3
ID : 4
Format : AC-3
Format/Info : Audio Coding 3
Commercial name : Dolby Digital
Codec ID : A_AC3
Duration : 1 h 28 min
Bit rate mode : Constant
Bit rate : 640 kb/s
Channel(s) : 6 channels
Channel layout : L R C LFE Ls Rs
Sampling rate : 48.0 kHz
Frame rate : 31.250 FPS (1536 SPF)
Compression mode : Lossy
Stream size : 404 MiB (18%)
Language : English
Service kind : Complete Main
Default : No
Forced : No

Text #1
ID : 5
Format : UTF-8
Codec ID : S_TEXT/UTF8
Codec ID/Info : UTF-8 Plain Text
Duration : 1 h 21 min
Bit rate : 48 b/s
Count of elements : 1132
Stream size : 28.9 KiB (0%)
Language : English
Default : No
Forced : No

Text #2
ID : 6
Format : UTF-8
Codec ID : S_TEXT/UTF8
Codec ID/Info : UTF-8 Plain Text
Duration : 1 h 23 min
Bit rate : 49 b/s
Count of elements : 1216
Stream size : 30.2 KiB (0%)
Title : SDH
Language : English
Default : No
Forced : No

Download
Для скачивания .torrent файлов необходима регистрация
Сайт не распространяет и не хранит электронные версии произведений, а лишь предоставляет доступ к создаваемому пользователями каталогу ссылок на торрент-файлы, которые содержат только списки хеш-сумм

Страница 1 из 1

Ответить на тему

   Похожие торренты   Торрент 




tracker_crontracker_cron