Регистрация ·  Логин: Пароль: Запомнить   · Забыли пароль?




Ответить на тему
Статистика раздачи
Размер: 1.44 ГБ | Зарегистрирован: 15 ноя 2020, 16:12 | .torrent скачан: 0 раз(а), DHT: [ 0 ] раз(а)
Сидеров: [ 0  | 0 байт/сек ]   Личеров: [ 0  | 0 байт/сек ]   DHT: [ 0 / 0 ]
Автор Сообщение

Модератор

С нами: 2 года 5 месяцев
Сообщения: 3401
Россия

Сообщение 15 ноя 2020, 16:12 

[Цитировать]

Капоне. Лицо со шрамом / Capone

Информация о фильме:
Название: Капоне. Лицо со шрамом
Оригинальное название: Capone
Год выхода: 2020
Жанр: Драма, криминал, биография
Режиссер: Джош Транк
В ролях: Том Харди, Линда Карделлини, Ноэль Фишер, Кайл МакЛахлан, Мэтт Диллон, Кэтрин Нардуччи, Джек Лауден, Ал Сапиенза, Тильда Дель Торо, Уэйн Пер, Роуз Бьянко, Мэнни Фахардо, Эдгар Арреола, Дэвид Уочс, Джош Транк
Описание: 17 октября 1931, самый известный в мире гангстер Аль Капоне был осужден за уклонение от уплаты налогов. В тюрьме его здоровье ухудшилось из-за нейросифилиса. 10 лет спустя, когда он больше не представлял угрозы, его выпустили из тюрьмы. Он живёт в ссылке, во Флориде, под наблюдением, и продолжает оставаться предметом пристального внимания ФБР. Ведь при аресте так и не была найдена крупная сумма денег — итог всей криминальной деятельности знаменитого мафиози. По всему дому расставлены жучки, под подозрением каждый член большой семьи Капоне. Удастся ли спецслужбам добиться от теряющего память гангстера информации, где и при каких обстоятельствах он спрятал деньги? В фильме мы видим последний год его жизни.

Страна: Канада, США
Студия: BRON Studios, A Band Apart, Addictive Pictures
Продолжительность: 01:44:45
Перевод: Дублированный - iTunes

Информация о файле:
Кодек: AVC
Формат: MKV
Качество: HDRip-AVC
Видео: MPEG-4 AVC, 1024x428 (2.40:1), 23.976 fps, 1538 kbps, 0.146
Аудио RU: AC3, 6 ch, 48 kHz, 384 kbps
Субтитры: Русские (Forced, full), английские
Навигация по главам: Да


x264 info: frame I:1722 Avg QP:14.52 size: 65927
x264 info: frame P:29895 Avg QP:17.84 size: 18781
x264 info: frame B:117813 Avg QP:19.37 size: 4431
x264 info: consecutive B-frames: 2.4% 2.3% 5.6% 13.0% 14.5% 43.2% 9.6% 2.0% 2.9% 3.7% 0.2% 0.2% 0.5%
General
Unique ID : 63207081994321111006559282975368132085 (0x2F8D3DBEB1D7FB93624E85808875B5F5)
Complete name : D:uTorrentРипы_от_wolf1245_MediaBitCapone 2020 HDRip-AVC from wolf1245 & MediaBit.mkv
Format : Matroska
Format version : Version 4
File size : 1.44 GiB
Duration : 1 h 43 min
Overall bit rate : 1 986 kb/s
Movie name : Capone 2020 HDRip-AVC from wolf1245 & MediaBit
Encoded date : UTC 2020-11-13 17:56:18
Writing application : mkvmerge v51.0.0 ('I Wish') 64-bit
Writing library : libebml v1.4.0 + libmatroska v1.6.2
Video
ID : 1
Format : AVC
Format/Info : Advanced Video Codec
Format profile : [email protected]
Format settings : CABAC / 12 Ref Frames
Format settings, CABAC : Yes
Format settings, Reference frames : 12 frames
Codec ID : V_MPEG4/ISO/AVC
Duration : 1 h 43 min
Bit rate : 1 538 kb/s
Width : 1 024 pixels
Height : 428 pixels
Display aspect ratio : 2.40:1
Frame rate mode : Constant
Frame rate : 23.976 (24000/1001) FPS
Color space : YUV
Chroma subsampling : 4:2:0
Bit depth : 8 bits
Scan type : Progressive
Bits/(Pixel*Frame) : 0.146
Stream size : 1.11 GiB (77%)
Title : wolf1245 & MediaBit
Writing library : x264 core 157 r2958 57baac4
Encoding settings : cabac=1 / ref=12 / deblock=1:-2:-2 / analyse=0x3:0x133 / me=umh / subme=11 / psy=1 / psy_rd=1.03:0.03 / mixed_ref=1 / me_range=48 / chroma_me=1 / trellis=2 / 8x8dct=1 / cqm=0 / deadzone=21,11 / fast_pskip=0 / chroma_qp_offset=-3 / threads=10 / lookahead_threads=2 / sliced_threads=0 / nr=0 / decimate=0 / interlaced=0 / bluray_compat=0 / constrained_intra=0 / bframes=12 / b_pyramid=2 / b_adapt=2 / b_bias=0 / direct=3 / weightb=1 / open_gop=0 / weightp=2 / keyint=240 / keyint_min=24 / scenecut=40 / intra_refresh=0 / rc_lookahead=60 / rc=2pass / mbtree=0 / bitrate=1538 / ratetol=1.0 / qcomp=0.60 / qpmin=0 / qpmax=69 / qpstep=4 / cplxblur=20.0 / qblur=0.5 / vbv_maxrate=50000 / vbv_bufsize=62500 / nal_hrd=none / filler=0 / ip_ratio=1.40 / pb_ratio=1.30 / aq=2:0.80
Language : English
Default : Yes
Forced : No
Color range : Limited
Color primaries : BT.709
Transfer characteristics : BT.709
Matrix coefficients : BT.709
Audio
ID : 2
Format : AC-3
Format/Info : Audio Coding 3
Commercial name : Dolby Digital
Codec ID : A_AC3
Duration : 1 h 43 min
Bit rate mode : Constant
Bit rate : 448 kb/s
Channel(s) : 6 channels
Channel layout : L R C LFE Ls Rs
Sampling rate : 48.0 kHz
Frame rate : 31.250 FPS (1536 SPF)
Compression mode : Lossy
Stream size : 333 MiB (23%)
Title : DUB | iTunes
Language : Russian
Service kind : Complete Main
Default : Yes
Forced : No
Text #1
ID : 3
Format : UTF-8
Codec ID : S_TEXT/UTF8
Codec ID/Info : UTF-8 Plain Text
Duration : 1 h 38 min
Bit rate : 2 b/s
Count of elements : 39
Stream size : 1.70 KiB (0%)
Title : Forced
Language : Russian
Default : No
Forced : No
Text #2
ID : 4
Format : UTF-8
Codec ID : S_TEXT/UTF8
Codec ID/Info : UTF-8 Plain Text
Duration : 1 h 38 min
Bit rate : 62 b/s
Count of elements : 1154
Stream size : 45.0 KiB (0%)
Title : Full [Focs]
Language : Russian
Default : No
Forced : No
Text #3
ID : 5
Format : UTF-8
Codec ID : S_TEXT/UTF8
Codec ID/Info : UTF-8 Plain Text
Duration : 1 h 32 min
Bit rate : 40 b/s
Count of elements : 948
Stream size : 27.4 KiB (0%)
Title : Full
Language : English
Default : No
Forced : No
Text #4
ID : 6
Format : UTF-8
Codec ID : S_TEXT/UTF8
Codec ID/Info : UTF-8 Plain Text
Duration : 1 h 35 min
Bit rate : 47 b/s
Count of elements : 1185
Stream size : 33.1 KiB (0%)
Title : SDH
Language : English
Default : No
Forced : No
Menu
00:00:00.000 : :Chapter 01
00:12:44.054 : :Chapter 02
00:31:39.564 : :Chapter 03
00:55:52.515 : :Chapter 04
01:17:14.129 : :Chapter 05
01:32:59.031 : :Chapter 06

Релиз от: & &


Download
Для скачивания .torrent файлов необходима регистрация
Сайт не распространяет и не хранит электронные версии произведений, а лишь предоставляет доступ к создаваемому пользователями каталогу ссылок на торрент-файлы, которые содержат только списки хеш-сумм

Страница 1 из 1

Ответить на тему

   Похожие торренты   Торрент 




cron