Регистрация ·  Логин: Пароль: Запомнить   · Забыли пароль?




Ответить на тему
Статистика раздачи
Размер: 1.86 ГБ | Зарегистрирован: 15 ноя 2020, 16:11 | .torrent скачан: 0 раз(а), DHT: [ 0 ] раз(а)
Сидеров: [ 0  | 0 байт/сек ]   Личеров: [ 0  | 0 байт/сек ]   DHT: [ 0 / 0 ]
Автор Сообщение

Модератор

С нами: 2 года 4 месяца
Сообщения: 3361
Россия

Сообщение 15 ноя 2020, 16:11 

[Цитировать]


Информация о фильме
Год выпуска: 2020
Жанр: Ужасы
Режиссер: Брайан Бертино
В ролях: Марин Айрлэнд, Майкл Эбботт мл., Ксандер Беркли, Линн Эндрюс, Джули Оливер-Тачстоун, Том Ноуики, Элла Бэллентайн, Мэл Кауэн, Минди Рэймонд, Крис Дабек

Описание:
Брат с сестрой Майкл и Луиз приезжают на отдалённую родительскую ферму повидаться с тяжелобольным пожилым отцом, но мать не очень-то рада их видеть. Она говорит детям, что зря они приехали, и на следующий день вешается в сарае. Майклу обстоятельства её смерти кажутся странными, а Луиз находит дневник матери, где та описывает некую злобную сущность, что подбирается всё ближе.


Страна: США / Traveling Picture Show Company (TPSC), Unbroken Pictures, Shotgun Shack Pictures
Продолжительность: 01:35:29
Перевод: Дублированный | iTunes
Субтитры: Английские, испанские, французские

Файл
Кодек: MPEG-4 AVC
Качество: WEB-DL 720p | AMZN
Видео: 1280x544, ~1952 kбит/сек, 23.976 fps
Аудио 1: 384 kb/s, 6ch, 48000kHz, AC3 [RUS] | iTunes
Аудио 2: 448 kb/s, 6ch, 48000kHz, AC3 [ENG] | Английский оригинал
Формат субтитров: softsub (SRT)

***Релиз от: -=DoMiNo=-

General
Format : Matroska
Format version : Version 4
File size : 1.86 GiB
Duration : 1 h 35 min
Overall bit rate : 2 786 kb/s
Movie name : The.Dark.and.the.Wicked.2020.720p.AMZN.WEB-DL.DDP5.1.H.264-NTG
Encoded date : UTC 2020-11-12 21:34:27
Writing application : mkvmerge v8.3.0 ('Over the Horizon') 64bit
Writing library : libebml v1.3.1 + libmatroska v1.4.2
Cover : Yes
Attachments : Cover.jpg / Cover 2.jpg

Video
ID : 1
Format : AVC
Format/Info : Advanced Video Codec
Format profile : [email protected]
Format settings : CABAC / 4 Ref Frames
Format settings, CABAC : Yes
Format settings, Reference : 4 frames
Codec ID : V_MPEG4/ISO/AVC
Duration : 1 h 35 min
Bit rate mode : Constant
Bit rate : 1 952 kb/s
Nominal bit rate : 6 000 kb/s
Width : 1 280 pixels
Height : 544 pixels
Display aspect ratio : 2.35:1
Original display aspect rat : 2.35:1
Frame rate mode : Constant
Frame rate : 23.976 (24000/1001) FPS
Color space : YUV
Chroma subsampling : 4:2:0
Bit depth : 8 bits
Scan type : Progressive
Bits/(Pixel*Frame) : 0.117
Stream size : 1.30 GiB (70%)
Title : -=DoMiNo=-
Language : English
Default : Yes
Forced : No
Color range : Limited
Color primaries : BT.709
Transfer characteristics : BT.709
Matrix coefficients : BT.709

Audio #1
ID : 2
Format : AC-3
Format/Info : Audio Coding 3
Commercial name : Dolby Digital
Codec ID : A_AC3
Duration : 1 h 35 min
Bit rate mode : Constant
Bit rate : 384 kb/s
Channel(s) : 6 channels
Channel layout : L R C LFE Ls Rs
Sampling rate : 48.0 kHz
Frame rate : 31.250 FPS (1536 SPF)
Compression mode : Lossy
Stream size : 262 MiB (14%)
Title : Дублированный | iTunes
Language : Russian
Service kind : Complete Main
Default : Yes
Forced : Yes

Audio #2
ID : 3
Format : AC-3
Format/Info : Audio Coding 3
Commercial name : Dolby Digital
Codec ID : A_AC3
Duration : 1 h 35 min
Bit rate mode : Constant
Bit rate : 448 kb/s
Channel(s) : 6 channels
Channel layout : L R C LFE Ls Rs
Sampling rate : 48.0 kHz
Frame rate : 31.250 FPS (1536 SPF)
Compression mode : Lossy
Stream size : 306 MiB (16%)
Language : English
Service kind : Complete Main
Default : No
Forced : No

Text #1
ID : 4
Format : UTF-8
Codec ID : S_TEXT/UTF8
Codec ID/Info : UTF-8 Plain Text
Duration : 1 h 34 min
Bit rate : 32 b/s
Count of elements : 1117
Stream size : 22.9 KiB (0%)
Title : SDH
Language : English
Default : No
Forced : No

Text #2
ID : 5
Format : UTF-8
Codec ID : S_TEXT/UTF8
Codec ID/Info : UTF-8 Plain Text
Duration : 1 h 29 min
Bit rate : 21 b/s
Count of elements : 641
Stream size : 13.9 KiB (0%)
Language : Spanish
Default : No
Forced : No

Text #3
ID : 6
Format : UTF-8
Codec ID : S_TEXT/UTF8
Codec ID/Info : UTF-8 Plain Text
Duration : 1 h 29 min
Bit rate : 23 b/s
Count of elements : 637
Stream size : 15.4 KiB (0%)
Language : French
Default : No
Forced : No

Download
Для скачивания .torrent файлов необходима регистрация
Сайт не распространяет и не хранит электронные версии произведений, а лишь предоставляет доступ к создаваемому пользователями каталогу ссылок на торрент-файлы, которые содержат только списки хеш-сумм

Страница 1 из 1

Ответить на тему

   Похожие торренты   Торрент 




tracker_crontracker_cron