Регистрация ·  Логин: Пароль: Запомнить   · Забыли пароль?




Ответить на тему
Статистика раздачи
Размер: 3.65 ГБ | Зарегистрирован: 15 ноя 2020, 16:10 | .torrent скачан: 0 раз(а), DHT: [ 1684 ] раз(а)
Сидеров: [ 138  | 0 байт/сек ]   Личеров: [ 21  | 0 байт/сек ]   DHT: [ 138 / 21 ]
Автор Сообщение

Модератор

С нами: 2 года 4 месяца
Сообщения: 3361
Россия

Сообщение 15 ноя 2020, 16:10 

[Цитировать]


Информация о фильме
Название: Октагон: Боец vs Рестлер
Оригинальное название: Cagefighter
Год выхода: 2020
Жанр: Боевик, спорт
Режиссер: Джесси Киньонес
В ролях: Алекс Монтаньяни, Джина Гершон, Джонатан Гуд, Бренна Коутс, Чак Лиделл, Элайджа Бэйкер, Джейсон Ресо, Джорджия Браднер, Лео Фафард, Лоуелл Дин



О фильме: Рисс – величайший чемпион ММА и легенда октагона. Оказаться с ним в одной клетке – все равно что поставить себя под ядерный удар. Но его следующим соперником – в рамках «боя века» – неожиданно выбран знаменитый рестлер Рэнди Стоун – ярый провокатор и шоумен, готовый на всё, чтобы развлечь зрителей. Два мира, и только одна победа.

Страна: Великобритания
Студия: Anamorphic Media, Trilight Entertainment
Продолжительность: 01:38:01
Перевод: Дублированный | iTunes

Качество: WEB-DL 1080p
Видео: MPEG-4 AVC, 1916x798, 4566 Kbit/s, 23.976 fps
Аудио #01: 48 kHz, AC3, 5.1, 384 Kbps | iTunes | RUS |
Аудио #02: 48 kHz, AC3, 5.1, 384 Kbps | Оригинал | ENG |
Субтитры: Русские (Full), английские



General
Unique ID : 320583838155458843169608873326708386694 (0xF12E338C43C121B3D5C338D42B8DEB86)
Complete name : D:Video111Cagefighter.2020.WEB-DL.1080p.seleZen.mkv
Format : Matroska
Format version : Version 4
File size : 3.65 GiB
Duration : 1 h 38 min
Overall bit rate : 5 337 kb/s
Movie name : Cagefighter 2020 from seleZen
Encoded date : UTC 2020-11-12 16:23:06
Writing application : mkvmerge v40.0.0 ('Old Town Road + Pony') 64-bit
Writing library : libebml v1.3.9 + libmatroska v1.5.2

Video
ID : 1
Format : AVC
Format/Info : Advanced Video Codec
Format profile : [email protected]
Format settings : CABAC / 5 Ref Frames
Format settings, CABAC : Yes
Format settings, Reference : 5 frames
Codec ID : V_MPEG4/ISO/AVC
Duration : 1 h 38 min
Bit rate : 4 566 kb/s
Width : 1 916 pixels
Height : 798 pixels
Display aspect ratio : 2.40:1
Frame rate mode : Constant
Frame rate : 23.976 (23976/1000) FPS
Color space : YUV
Chroma subsampling : 4:2:0
Bit depth : 8 bits
Scan type : Progressive
Bits/(Pixel*Frame) : 0.125
Stream size : 3.13 GiB (86%)
Language : English
Default : Yes
Forced : No
Color range : Limited
Color primaries : BT.709
Transfer characteristics : BT.709
Matrix coefficients : BT.709

Audio #1
ID : 2
Format : AC-3
Format/Info : Audio Coding 3
Commercial name : Dolby Digital
Codec ID : A_AC3
Duration : 1 h 38 min
Bit rate mode : Constant
Bit rate : 384 kb/s
Channel(s) : 6 channels
Channel layout : L R C LFE Ls Rs
Sampling rate : 48.0 kHz
Frame rate : 31.250 FPS (1536 SPF)
Compression mode : Lossy
Stream size : 269 MiB (7%)
Title : iTunes
Language : Russian
Service kind : Complete Main
Default : Yes
Forced : Yes

Audio #2
ID : 3
Format : AC-3
Format/Info : Audio Coding 3
Commercial name : Dolby Digital
Codec ID : A_AC3
Duration : 1 h 38 min
Bit rate mode : Constant
Bit rate : 384 kb/s
Channel(s) : 6 channels
Channel layout : L R C LFE Ls Rs
Sampling rate : 48.0 kHz
Frame rate : 31.250 FPS (1536 SPF)
Compression mode : Lossy
Stream size : 269 MiB (7%)
Title : Original
Language : English
Service kind : Complete Main
Default : No
Forced : No

Text #1
ID : 4
Format : UTF-8
Codec ID : S_TEXT/UTF8
Codec ID/Info : UTF-8 Plain Text
Duration : 1 h 36 min
Bit rate : 144 b/s
Count of elements : 1564
Stream size : 102 KiB (0%)
Title : Full
Language : Russian
Default : No
Forced : No

Text #2
ID : 5
Format : UTF-8
Codec ID : S_TEXT/UTF8
Codec ID/Info : UTF-8 Plain Text
Duration : 1 h 36 min
Bit rate : 95 b/s
Count of elements : 1939
Stream size : 67.7 KiB (0%)
Title : Full
Language : English
Default : No
Forced : No

Text #3
ID : 6
Format : UTF-8
Codec ID : S_TEXT/UTF8
Codec ID/Info : UTF-8 Plain Text
Duration : 1 h 37 min
Bit rate : 101 b/s
Count of elements : 2067
Stream size : 73.0 KiB (0%)
Title : SDH
Language : English
Default : No
Forced : No

Menu
00:00:00.000 : en:1
00:04:46.119 : en:2
00:08:50.988 : en:3
00:15:43.108 : en:4
00:22:10.161 : en:5
00:33:56.492 : en:6
00:40:17.330 : en:7
00:45:21.217 : en:8
00:50:46.874 : en:9
00:56:20.999 : en:10
01:04:24.189 : en:11
01:10:47.905 : en:12
01:13:06.417 : en:13
01:19:06.485 : en:14
01:25:00.171 : en:15
01:33:25.176 : en:16


Релиз: Присоединяйся к:


Download
Для скачивания .torrent файлов необходима регистрация
Сайт не распространяет и не хранит электронные версии произведений, а лишь предоставляет доступ к создаваемому пользователями каталогу ссылок на торрент-файлы, которые содержат только списки хеш-сумм

Страница 1 из 1

Ответить на тему

   Похожие торренты   Торрент 




tracker_crontracker_cron