Регистрация ·  Логин: Пароль: Запомнить   · Забыли пароль?




Ответить на тему
Статистика раздачи
Размер: 1.41 ГБ | Зарегистрирован: 15 ноя 2020, 16:10 | .torrent скачан: 0 раз(а), DHT: [ 0 ] раз(а)
Сидеров: [ 0  | 0 байт/сек ]   Личеров: [ 0  | 0 байт/сек ]   DHT: [ 0 / 0 ]
Автор Сообщение

Модератор

С нами: 2 года 4 месяца
Сообщения: 3361
Россия

Сообщение 15 ноя 2020, 16:10 

[Цитировать]


Информация о фильме
Название: Неистовый
Оригинальное название: Unhinged
Год выпуска: 2020
Жанр: Боевик, триллер
Режиссер: Деррик Борте
В ролях: Расселл Кроу, Джимми Симпсон, Карен Писториус, Гэбриел Бейтман, Остин П. МакКензи, Энн Мари Лейтон, Майкл Пападжон, Люси Фауст, Сильвия Грэйс Крим, Стивен Луис Граш

О фильме:
Нет ничего опаснее человека, доведенного до точки кипения. Особенно, если жизнь обошлась с ним несправедливо и теперь ему нечего терять. Именно таким оказывается водитель автомобиля, с которым повздорила на дороге обычная мать-одиночка, не подозревая, что нажила себе безжалостного врага. Теперь он не остановится пока не преподаст страшный урок своей жертве и всем, кто ей дорог. У женщины и ее сына не остается другого выбора, кроме как попытаться выжить в этой набирающей скорость смертельной игре.



Страна: США
Студия: Burek Films, Ingenious, Solstice Studios
Продолжительность: 01:30:07
Перевод: Дублированный | iTunes

Файл
Формат: MKV
Качество: BDRip-AVC
Исходник: |Unhinged.2020.BDREMUX.1080p.seleZen|
Видео: 1024x430 (2.40:1), 23.976 fps, x264 ~1855 kbps avg, 0.176 bit/pixel
Звук: AC3, 48 kHz, 6 ch, ~384.00 kbps avg
Субтитры: Русские (Full), английские

Релиз:

General
Unique ID : 101721077199854904900765111975244014177 (0x4C86C450A391CC1F8A54339AF8612261)
Complete name : D:OlLanDGroupUnhinged.2020.BDRip(AVC). OlLanDGroup.mkv
Format : Matroska
Format version : Version 4
File size : 1.41 GiB
Duration : 1 h 30 min
Overall bit rate : 2 239 kb/s
Movie name : Неистовый / Unhinged (2020) BDRip-AVC от OlLanDGroup#Skandar
Encoded date : UTC 2020-11-12 09:25:49
Writing application : mkvmerge v31.0.0 ('Dolores In A Shoestand') 64-bit
Writing library : libebml v1.3.6 + libmatroska v1.4.9

Video
ID : 1
Format : AVC
Format/Info : Advanced Video Codec
Format profile : [email protected]
Format settings : CABAC / 10 Ref Frames
Format settings, CABAC : Yes
Format settings, ReFrames : 10 frames
Codec ID : V_MPEG4/ISO/AVC
Duration : 1 h 30 min
Bit rate : 1 855 kb/s
Width : 1 024 pixels
Height : 430 pixels
Display aspect ratio : 2.40:1
Frame rate mode : Constant
Frame rate : 23.976 (24000/1001) FPS
Color space : YUV
Chroma subsampling : 4:2:0
Bit depth : 8 bits
Scan type : Progressive
Bits/(Pixel*Frame) : 0.176
Stream size : 1.17 GiB (83%)
Title : Неистовый / Unhinged (2020) BDRip-AVC от OlLanDGroup#Skandar
Writing library : x264 core 146 r2538 121396c
Encoding settings : cabac=1 / ref=10 / deblock=1:-3:-3 / analyse=0x3:0x133 / me=umh / subme=11 / psy=1 / psy_rd=0.95:0.05 / mixed_ref=1 / me_range=32 / chroma_me=1 / trellis=2 / 8x8dct=1 / cqm=0 / deadzone=21,11 / fast_pskip=0 / chroma_qp_offset=-3 / threads=6 / lookahead_threads=1 / sliced_threads=0 / nr=0 / decimate=0 / interlaced=0 / bluray_compat=0 / constrained_intra=0 / bframes=10 / b_pyramid=2 / b_adapt=2 / b_bias=0 / direct=3 / weightb=1 / open_gop=0 / weightp=2 / keyint=240 / keyint_min=23 / scenecut=40 / intra_refresh=0 / rc_lookahead=40 / rc=2pass / mbtree=1 / bitrate=1855 / ratetol=1.0 / qcomp=0.60 / qpmin=0 / qpmax=69 / qpstep=4 / cplxblur=20.0 / qblur=0.5 / vbv_maxrate=50000 / vbv_bufsize=62500 / nal_hrd=none / filler=0 / ip_ratio=1.40 / aq=1:1.00
Language : English
Default : Yes
Forced : No

Audio
ID : 2
Format : AC-3
Format/Info : Audio Coding 3
Commercial name : Dolby Digital
Codec ID : A_AC3
Duration : 1 h 30 min
Bit rate mode : Constant
Bit rate : 384 kb/s
Channel(s) : 6 channels
Channel layout : L R C LFE Ls Rs
Sampling rate : 48.0 kHz
Frame rate : 31.250 FPS (1536 SPF)
Bit depth : 16 bits
Compression mode : Lossy
Stream size : 247 MiB (17%)
Title : DUB | iTunes
Language : Russian
Service kind : Complete Main
Default : Yes
Forced : No

Text #1
ID : 3
Format : UTF-8
Codec ID : S_TEXT/UTF8
Codec ID/Info : UTF-8 Plain Text
Duration : 1 h 17 min
Bit rate : 90 b/s
Count of elements : 1001
Stream size : 51.3 KiB (0%)
Title : Full
Language : Russian
Default : No
Forced : No

Text #2
ID : 4
Format : UTF-8
Codec ID : S_TEXT/UTF8
Codec ID/Info : UTF-8 Plain Text
Duration : 1 h 17 min
Bit rate : 56 b/s
Count of elements : 986
Stream size : 32.3 KiB (0%)
Title : Full
Language : English
Default : No
Forced : No

Text #3
ID : 5
Format : UTF-8
Codec ID : S_TEXT/UTF8
Codec ID/Info : UTF-8 Plain Text
Duration : 1 h 24 min
Bit rate : 61 b/s
Count of elements : 1228
Stream size : 38.0 KiB (0%)
Title : SDH
Language : English
Default : No
Forced : No

Menu
00:00:00.000 : en:Chapter 01
00:04:55.045 : en:Chapter 02
00:07:47.425 : en:Chapter 03
00:12:03.890 : en:Chapter 04
00:19:14.069 : en:Chapter 05
00:25:58.515 : en:Chapter 06
00:28:19.740 : en:Chapter 07
00:32:44.087 : en:Chapter 08
00:36:04.454 : en:Chapter 09
00:39:43.047 : en:Chapter 10
00:45:20.634 : en:Chapter 11
00:49:30.593 : en:Chapter 12
01:01:47.329 : en:Chapter 13
01:09:41.427 : en:Chapter 14
01:12:52.493 : en:Chapter 15
01:18:56.607 : en:Chapter 16



Download
Для скачивания .torrent файлов необходима регистрация
Сайт не распространяет и не хранит электронные версии произведений, а лишь предоставляет доступ к создаваемому пользователями каталогу ссылок на торрент-файлы, которые содержат только списки хеш-сумм

Страница 1 из 1

Ответить на тему

   Похожие торренты   Торрент 




tracker_crontracker_cron