Регистрация ·  Логин: Пароль: Запомнить   · Забыли пароль?




Ответить на тему
Статистика раздачи
Размер: 3.39 ГБ | Зарегистрирован: 15 ноя 2020, 16:09 | .torrent скачан: 0 раз(а), DHT: [ 0 ] раз(а)
Сидеров: [ 0  | 0 байт/сек ]   Личеров: [ 0  | 0 байт/сек ]   DHT: [ 0 / 0 ]
Автор Сообщение

Модератор

С нами: 2 года 4 месяца
Сообщения: 3361
Россия

Сообщение 15 ноя 2020, 16:09 

[Цитировать]


Информация о фильме
Название: Спайс бойз
Год выхода: 2020
Жанр: Триллер, драма
Режиссер: Владимир Зинкевич
В ролях: Маргарита Аброськина, Александр Головин, Александр Тарасов, Владимир Аверьянов, Анна Андрусенко, Михаил Горевой, Владимир Сычев, Алексей Маслодудов, Андрей Олефиренко, Игорь Шугалеев

О фильме: Василиса приезжает в родной городок на свадьбу школьной подруги Инны. Жених с двумя друзьями за день до свадьбы организовывает незапланированный мальчишник в загородном доме. Инне это не нравится, и она едет к жениху выяснить отношения, Василиса решает поддержать подругу и сопровождает Инну. В ходе ссоры Василисе удается примирить молодоженов. Вечеринка набирает обороты, в разгар веселья парни употребляют спайс. Ребят накрывает волной галлюцинаций, и мир вокруг начинает утопать в кровавой пене.


Страна: Беларусь
Студия: АвантДрайв, LoonaFilm
Продолжительность: 01:45:36
Перевод: Не требуется ~ Русский язык

Файл
Кодек: MPEG-4 AVC
Качество: WEBRip 1080p
Видео: 1920x800, 4404 kбит/сек, 24.000 fps
Звук: 192kb/s, 2ch, 44100kHz, AAC [RUS]
Субтитры: Отсутствуют

Формат : Matroska
Версия формата : Version 4 / Version 2
Размер файла : 3,39 Гбайт
Продолжительность : 1 ч. 45 м.
Режим общего битрейта : Переменный
Общий поток : 4599 Кбит/сек
Дата кодирования : UTC 2020-11-11 09:11:23
Программа кодирования : mkvmerge v8.3.0 ('Over the Horizon') 64bit
Библиотека кодирования : libebml v1.3.1 + libmatroska v1.4.2

Видео
Идентификатор : 1
Формат : AVC
Формат/Информация : Advanced Video Codec
Профиль формата : [email protected]
Настройки формата : CABAC / 1 Ref Frames
Параметр CABAC формата : Да
Параметр RefFrames формата : 1 кадр
Параметр GOP формата : M=1, N=48
Идентификатор кодека : V_MPEG4/ISO/AVC
Продолжительность : 1 ч. 45 м.
Вид битрейта : Переменный
Битрейт : 4404 Кбит/сек
Максимальный битрейт : 4500 Кбит/сек
Ширина : 1920 пикселей
Высота : 800 пикселей
Соотношение сторон : 2,40:1
Режим частоты кадров : Постоянный
Частота кадров : 24,000 кадра/сек
Цветовое пространство : YUV
Субдискретизация насыщенности : 4:2:0
Битовая глубина : 8 бит
Тип развёртки : Прогрессивная
Бит/(Пиксели*Кадры) : 0.119
Размер потока : 3,25 Гбайт (96%)
Default : Да
Forced : Нет

Аудио
Идентификатор : 2
Формат : AAC
Формат/Информация : Advanced Audio Codec
Профиль формата : LC
Идентификатор кодека : A_AAC-2
Продолжительность : 1 ч. 45 м.
Битрейт : 192 Кбит/сек
Каналы : 2 канала
Расположение каналов : Front: L R
Частота : 44,1 КГц
Частота кадров : 43,066 кадра/сек (1024 SPF)
Метод сжатия : С потерями
Размер потока : 145 Мбайт (4%)
Заголовок : RUS
Default : Да
Forced : Нет

Download
Для скачивания .torrent файлов необходима регистрация
Сайт не распространяет и не хранит электронные версии произведений, а лишь предоставляет доступ к создаваемому пользователями каталогу ссылок на торрент-файлы, которые содержат только списки хеш-сумм

Страница 1 из 1

Ответить на тему

   Похожие торренты   Торрент 




tracker_crontracker_cron