Регистрация ·  Логин: Пароль: Запомнить   · Забыли пароль?




Ответить на тему
Статистика раздачи
Размер: 1.45 ГБ | Зарегистрирован: 15 ноя 2020, 16:09 | .torrent скачан: 0 раз(а), DHT: [ 6543 ] раз(а)
Сидеров: [ 18  | 0 байт/сек ]   Личеров: [ 0  | 0 байт/сек ]   DHT: [ 18 / 0 ]
Автор Сообщение

Модератор

С нами: 2 года 5 месяцев
Сообщения: 3401
Россия

Сообщение 15 ноя 2020, 16:09 

[Цитировать]

Информация о фильме
Название: Хранитель дворца
Оригинальное название: Sha hai zhu long / Guardian of the Palace
Год выхода: 2020
Жанр: Боевик, фэнтези
Режиссер: Юйхай Вэй
В ролях: Юйсы Пэн, Ду И-Хэн, Сэмми Хун, Хэ Ижун, Лу Цивэй, Чень Имин, Чан Жао, Юньфэн-Нянь, Юэбинь Чжан, Зики-Хан, Сяомань Ню, Гуан Чжан

О фильме:
Тысячу лет назад страна Хэйшуй процветала и ее улицы были вымощены золотом. Но за одну ночь все изменилось. Многолетняя битва с пустыней была проиграна и страну Хэйшуй поглотил песок. Спустя тысячу лет в небольшом городке неподалеку началась эпидемия чумы. В книгах сказано, что только лунный камень из дворца древней страны Хэйшуй способен остановить болезнь. Отважные герои отправляются на поиски лунного камня.



Страна: Китай
Студия: Beijing Culture
Продолжительность: 01:30:11
Перевод: Любительский двухголосый, любительский одноголосый
Субтитры: Russian, English

Файл
Формат: Matroska
Качество: WEBRip-AVC
Видео: 1040x442 at 24.000 fps, [email protected], ~1919 kbps, 0.174 bpp
Аудио #1: Русский (АС3, 2 ch, 192 Кбит/с, 48.0 KHz) Любительский (двухголосый, закадровый) RealFake
Аудио #2: Русский (АС3, 2 ch, 192 Кбит/с, 48.0 KHz) Любительский (одноголосый, закадровый) Виктор Береговых
Формат субтитров: softsub (SRT)
► Без Рекламы!

***Релиз от: -=DoMiNo=-

x264 [info]: frame I:1002 Avg QP:13.35 size: 69639
x264 [info]: frame P:37439 Avg QP:17.44 size: 18867
x264 [info]: frame B:91417 Avg QP:20.61 size: 5702
x264 [info]: consecutive B-frames: 4.7% 7.2% 10.7% 56.7% 7.7% 7.9% 1.5% 3.2% 0.4%

General
Format : Matroska
Format version : Version 4
File size : 1.45 GiB
Duration : 1 h 30 min
Overall bit rate : 2 305 kb/s
Movie name : Хранитель дворца.(2020).WEBRip-AVC.[-=DoMiNo=-]
Encoded date : UTC 2020-11-11 12:21:00
Writing application : mkvmerge v8.3.0 ('Over the Horizon') 64bit
Writing library : libebml v1.3.1 + libmatroska v1.4.2
Cover : Yes
Attachments : Cover.jpg / Cover 2.jpg

Video
ID : 1
Format : AVC
Format/Info : Advanced Video Codec
Format profile : [email protected]
Format settings : CABAC / 12 Ref Frames
Format settings, CABAC : Yes
Format settings, Reference : 12 frames
Codec ID : V_MPEG4/ISO/AVC
Duration : 1 h 30 min
Bit rate : 1 919 kb/s
Width : 1 040 pixels
Height : 442 pixels
Display aspect ratio : 2.35:1
Frame rate mode : Constant
Frame rate : 24.000 FPS
Color space : YUV
Chroma subsampling : 4:2:0
Bit depth : 8 bits
Scan type : Progressive
Bits/(Pixel*Frame) : 0.174
Stream size : 1.21 GiB (83%)
Title : -=DoMiNo=-
Writing library : x264 core 161 r3027 4121277
Encoding settings : cabac=1 / ref=12 / deblock=1:-2:-1 / analyse=0x3:0x133 / me=umh / subme=10 / psy=1 / psy_rd=1.00:0.00 / mixed_ref=1 / me_range=32 / chroma_me=1 / trellis=2 / 8x8dct=1 / cqm=0 / deadzone=21,11 / fast_pskip=0 / chroma_qp_offset=-2 / threads=6 / lookahead_threads=1 / sliced_threads=0 / nr=0 / decimate=0 / interlaced=0 / bluray_compat=0 / constrained_intra=0 / bframes=8 / b_pyramid=2 / b_adapt=2 / b_bias=0 / direct=3 / weightb=1 / open_gop=0 / weightp=2 / keyint=250 / keyint_min=24 / scenecut=40 / intra_refresh=0 / rc_lookahead=80 / rc=2pass / mbtree=1 / bitrate=1919 / ratetol=1.0 / qcomp=0.60 / qpmin=0 / qpmax=69 / qpstep=4 / cplxblur=20.0 / qblur=0.5 / ip_ratio=1.40 / aq=2:1.00
Language : English
Default : Yes
Forced : No
Color range : Limited
Color primaries : BT.709
Transfer characteristics : BT.709
Matrix coefficients : BT.709

Audio #1
ID : 2
Format : AC-3
Format/Info : Audio Coding 3
Commercial name : Dolby Digital
Codec ID : A_AC3
Duration : 1 h 30 min
Bit rate mode : Constant
Bit rate : 192 kb/s
Channel(s) : 2 channels
Channel layout : L R
Sampling rate : 48.0 kHz
Frame rate : 31.250 FPS (1536 SPF)
Compression mode : Lossy
Stream size : 124 MiB (8%)
Title : DVO | RealFake
Language : Russian
Service kind : Complete Main
Default : Yes
Forced : No

Audio #2
ID : 3
Format : AC-3
Format/Info : Audio Coding 3
Commercial name : Dolby Digital
Codec ID : A_AC3
Duration : 1 h 30 min
Bit rate mode : Constant
Bit rate : 192 kb/s
Channel(s) : 2 channels
Channel layout : L R
Sampling rate : 48.0 kHz
Frame rate : 31.250 FPS (1536 SPF)
Compression mode : Lossy
Stream size : 124 MiB (8%)
Title : VO | Виктор Береговых
Language : Russian
Service kind : Complete Main
Default : No
Forced : No

Text #1
ID : 4
Format : UTF-8
Codec ID : S_TEXT/UTF8
Codec ID/Info : UTF-8 Plain Text
Duration : 1 h 25 min
Bit rate : 39 b/s
Count of elements : 676
Stream size : 24.6 KiB (0%)
Language : Russian
Default : No
Forced : No

Text #2
ID : 5
Format : UTF-8
Codec ID : S_TEXT/UTF8
Codec ID/Info : UTF-8 Plain Text
Duration : 1 h 24 min
Bit rate : 30 b/s
Count of elements : 717
Stream size : 18.8 KiB (0%)
Language : English
Default : No
Forced : No


Download
Для скачивания .torrent файлов необходима регистрация
Сайт не распространяет и не хранит электронные версии произведений, а лишь предоставляет доступ к создаваемому пользователями каталогу ссылок на торрент-файлы, которые содержат только списки хеш-сумм

Страница 1 из 1

Ответить на тему

   Похожие торренты   Торрент