Регистрация ·  Логин: Пароль: Запомнить   · Забыли пароль?




Ответить на тему
Статистика раздачи
Размер: 3.83 ГБ | Зарегистрирован: 15 ноя 2020, 16:08 | .torrent скачан: 0 раз(а), DHT: [ 0 ] раз(а)
Сидеров: [ 0  | 0 байт/сек ]   Личеров: [ 0  | 0 байт/сек ]   DHT: [ 0 / 0 ]
Автор Сообщение

Модератор

С нами: 2 года 4 месяца
Сообщения: 3361
Россия

Сообщение 15 ноя 2020, 16:08 

[Цитировать]


Информация о фильме
Название: Хранитель дворца
Оригинальное название: Guardian of the Palace
Год выхода: 2020
Жанр: Боевик, фэнтези
Режиссер: Юйхай Вэй
В ролях: Юйсы Пэн, Ду И-Хэн, Сэмми Хун, Хэ Ижун, Лу Цивэй, Чень Имин, Чан Жао, Юньфэн-Нянь, Юэбинь Чжан, Зики-Хан, Сяомань Ню, Гуан Чжан

О фильме:
Тысячу лет назад страна Хэйшуй процветала и ее улицы были вымощены золотом. Но за одну ночь все изменилось. Многолетняя битва с пустыней была проиграна и страну Хэйшуй поглотил песок. Спустя тысячу лет в небольшом городке неподалеку началась эпидемия чумы. В книгах сказано, что только лунный камень из дворца древней страны Хэйшуй способен остановить болезнь. Отважные герои отправляются на поиски лунного камня.


Страна: Китай
Студия: Beijing Culture
Продолжительность: 01:30:11
Перевод: Любительский двухголосый, любительский одноголосый

Файл
Кодек: AVC
Качество: WEBRip 1080p
Видео: MPEG-4 AVC, 5500 Kбит/с, 1920x816, 24.000 кадр/с
Аудио #1: Русский (АС3, 2 ch, 192 Кбит/с, 48.0 KHz) Любительский (двухголосый, закадровый) RealFake
Аудио #2: Русский (АС3, 2 ch, 192 Кбит/с, 48.0 KHz) Любительский (одноголосый, закадровый) Виктор Береговых
Аудио #3: Китайский (АС3, 2 ch, 256 Кбит/с, 48.0 KHz)
Субтитры: Русские (Full), английские
► Без Рекламы!
Трейлер
Источник: Guardian.of.the.Palace.2020.CHINESE.1080p.WEBRip.x264-NOGRP
General
Unique ID : 179391083978047583160664273765804464619 (0x86F5774E53F90749BE91D716B042D9EB)
Complete name : Guardian.of.the.Palace.2020.CHINESE.1080p.WEBRip.mkv
Format : Matroska
Format version : Version 4
File size : 3.83 GiB
Duration : 1 h 30 min
Overall bit rate : 6 076 kb/s
Encoded date : UTC 2020-11-09 15:59:06
Writing application : mkvmerge v7.1.0 ('Good Love') 64bit built on Jul 27 2014 13:06:55
Writing library : libebml v1.3.0 + libmatroska v1.4.1

Video
ID : 1
Format : AVC
Format/Info : Advanced Video Codec
Format profile : [email protected]
Format settings : CABAC / 4 Ref Frames
Format settings, CABAC : Yes
Format settings, Reference fra : 4 frames
Codec ID : V_MPEG4/ISO/AVC
Duration : 1 h 30 min
Bit rate : 5 500 kb/s
Width : 1 920 pixels
Height : 816 pixels
Display aspect ratio : 2.35:1
Frame rate mode : Constant
Frame rate : 24.000 FPS
Color space : YUV
Chroma subsampling : 4:2:0
Bit depth : 8 bits
Scan type : Progressive
Bits/(Pixel*Frame) : 0.146
Stream size : 3.42 GiB (89%)
Writing library : x264 core 148 r2795M aaa9aa8
Encoding settings : cabac=1 / ref=4 / deblock=1:0:0 / analyse=0x3:0x113 / me=umh / subme=9 / psy=1 / psy_rd=1.00:0.00 / mixed_ref=1 / me_range=16 / chroma_me=1 / trellis=2 / 8x8dct=1 / cqm=0 / deadzone=21,11 / fast_pskip=1 / chroma_qp_offset=-2 / threads=25 / lookahead_threads=2 / sliced_threads=0 / nr=0 / decimate=1 / interlaced=0 / bluray_compat=0 / constrained_intra=0 / bframes=3 / b_pyramid=2 / b_adapt=2 / b_bias=0 / direct=3 / weightb=1 / open_gop=0 / weightp=2 / keyint=250 / keyint_min=24 / scenecut=40 / intra_refresh=0 / rc_lookahead=50 / rc=abr / mbtree=1 / bitrate=5500 / ratetol=1.0 / qcomp=0.60 / qpmin=0 / qpmax=69 / qpstep=4 / ip_ratio=1.40 / aq=1:1.00
Language : Chinese
Default : Yes
Forced : No

Audio #1
ID : 2
Format : AC-3
Format/Info : Audio Coding 3
Commercial name : Dolby Digital
Codec ID : A_AC3
Duration : 1 h 30 min
Bit rate mode : Constant
Bit rate : 192 kb/s
Channel(s) : 2 channels
Channel layout : L R
Sampling rate : 48.0 kHz
Frame rate : 31.250 FPS (1536 SPF)
Compression mode : Lossy
Stream size : 124 MiB (3%)
Title : DVO | RealFake
Language : Russian
Service kind : Complete Main
Default : Yes
Forced : No

Audio #2
ID : 3
Format : AC-3
Format/Info : Audio Coding 3
Commercial name : Dolby Digital
Codec ID : A_AC3
Duration : 1 h 30 min
Bit rate mode : Constant
Bit rate : 192 kb/s
Channel(s) : 2 channels
Channel layout : L R
Sampling rate : 48.0 kHz
Frame rate : 31.250 FPS (1536 SPF)
Compression mode : Lossy
Stream size : 124 MiB (3%)
Title : VO | Виктор Береговых
Language : Russian
Service kind : Complete Main
Default : No
Forced : No

Audio #3
ID : 4
Format : AC-3
Format/Info : Audio Coding 3
Commercial name : Dolby Digital
Codec ID : A_AC3
Duration : 1 h 30 min
Bit rate mode : Constant
Bit rate : 256 kb/s
Channel(s) : 2 channels
Channel layout : L R
Sampling rate : 48.0 kHz
Frame rate : 31.250 FPS (1536 SPF)
Compression mode : Lossy
Stream size : 165 MiB (4%)
Language : Chinese
Service kind : Complete Main
Default : No
Forced : No

Text #1
ID : 5
Format : UTF-8
Codec ID : S_TEXT/UTF8
Codec ID/Info : UTF-8 Plain Text
Duration : 1 h 25 min
Bit rate : 39 b/s
Count of elements : 678
Stream size : 24.6 KiB (0%)
Language : Russian
Default : No
Forced : No

Text #2
ID : 6
Format : UTF-8
Codec ID : S_TEXT/UTF8
Codec ID/Info : UTF-8 Plain Text
Duration : 1 h 24 min
Bit rate : 30 b/s
Count of elements : 717
Stream size : 18.8 KiB (0%)
Language : English
Default : No
Forced : No

Download
Для скачивания .torrent файлов необходима регистрация
Сайт не распространяет и не хранит электронные версии произведений, а лишь предоставляет доступ к создаваемому пользователями каталогу ссылок на торрент-файлы, которые содержат только списки хеш-сумм

Страница 1 из 1

Ответить на тему

   Похожие торренты   Торрент 




cron
tracker_crontracker_cron