Регистрация ·  Логин: Пароль: Запомнить   · Забыли пароль?




Ответить на тему
Статистика раздачи
Размер: 1.89 ГБ | Зарегистрирован: 15 ноя 2020, 16:08 | .torrent скачан: 0 раз(а), DHT: [ 39 ] раз(а)
Сидеров: [ 2  | 0 байт/сек ]   Личеров: [ 1  | 0 байт/сек ]   DHT: [ 2 / 1 ]
Автор Сообщение

Модератор

С нами: 2 года 4 месяца
Сообщения: 3361
Россия

Сообщение 15 ноя 2020, 16:08 

[Цитировать]


Информация о фильме
Название: В тылу врага / Вражеские линии
Оригинальное название: Enemy Lines
Год выхода: 2020
Жанр: Военный, история
Режиссер: Андерс Банке
В ролях: Эд Вествик, Джон Ханна, Том Уисдом, Кори Джонсон, Скотт Хейнинг, Павел Делонг, Гари Грант, Владимир Епифанцев, Жан-Марк Биркхольц, Даниэль Джиллингс

О фильме:
1943 год, оккупированная Польша. Подразделение спецназа Американо-Британских союзников отправляется во вражеский тыл, чтобы »вытащить» польского ученого-«ракетчика» доктора Фабиана, работающего в немецкой лаборатории.



Страна: Великобритания
Студия: Gaia Media, Happy Hour Films, Principal Film Finance
Продолжительность: 01:32:20
Перевод: Дубляж | iTunes

Файл
Формат: Matroska
Качество: BDRip-AVC
Видео: AVC/H.264, 1024x428, ~2091 kbps, 0.199 b/px, 23.976 fps
Аудио 1: AC3, 6 ch, 384 kbps - Русский (iTunes)
Аудио 2: AC3, 6 ch, 448 kbps - Английский
Субтитры: Английские (Full)

x264 info: frame I:1271 Avg QP:12.85 size: 76013
x264 info: frame P:31270 Avg QP:15.74 size: 22836
x264 info: frame B:100307 Avg QP:17.57 size: 6337
x264 info: consecutive B-frames: 2.4% 3.3% 7.4% 41.6% 15.3% 18.1% 4.0% 4.8% 0.8% 0.5% 0.7% 0.5% 0.5%
x264 info: mb I I16..4: 10.5% 59.9% 29.6%
x264 info: mb P I16..4: 0.5% 9.5% 1.5% P16..4: 28.8% 33.6% 15.5% 4.1% 0.5% skip: 6.0%
x264 info: mb B I16..4: 0.1% 0.9% 0.1% B16..8: 31.3% 21.0% 3.8% direct: 5.6% skip:37.2% L0:41.6% L1:41.6% BI:16.8%
x264 info: 8x8 transform intra:78.0% inter:43.7%
x264 info: direct mvs spatial:98.5% temporal:1.5%
x264 info: coded y,uvDC,uvAC intra: 91.0% 69.9% 49.3% inter: 24.9% 10.9% 5.8%
x264 info: i16 v,h,dc,p: 25% 10% 15% 49%
x264 info: i8 v,h,dc,ddl,ddr,vr,hd,vl,hu: 11% 10% 10% 9% 12% 11% 12% 12% 14%
x264 info: i4 v,h,dc,ddl,ddr,vr,hd,vl,hu: 13% 8% 7% 9% 14% 13% 13% 11% 12%
x264 info: i8c dc,h,v,p: 38% 34% 18% 11%
x264 info: Weighted P-Frames: Y:2.9% UV:0.7%
x264 info: ref P L0: 49.0% 9.8% 16.4% 6.4% 5.1% 3.5% 3.2% 1.8% 1.7% 1.4% 1.5% 0.1% 0.0%
x264 info: ref B L0: 75.2% 11.1% 5.0% 2.7% 1.9% 1.5% 1.0% 0.7% 0.5% 0.2%
x264 info: ref B L1: 94.9% 5.1%
x264 info: kb/s:2088.32
--------------------------------------------------------------
General
Format : Matroska
Format version : Version 4
File size : 1.89 GiB
Duration : 1 h 32 min
Overall bit rate : 2 922 kb/s
Movie name : Enemy Lines 2020.BDRip.AVC.DUB.mikos
Encoded date : UTC 2020-11-10 13:04:39
Writing application : mkvmerge v51.0.0 ('I Wish') 64-bit
Writing library : libebml v1.4.0 + libmatroska v1.6.2

Video
ID : 1
Format : AVC
Format/Info : Advanced Video Codec
Format profile : [email protected]
Format settings : CABAC / 11 Ref Frames
Format settings, CABAC : Yes
Format settings, Reference frames : 11 frames
Codec ID : V_MPEG4/ISO/AVC
Duration : 1 h 32 min
Bit rate : 2 091 kb/s
Width : 1 024 pixels
Height : 428 pixels
Display aspect ratio : 2.40:1
Frame rate mode : Constant
Frame rate : 23.976 (24000/1001) FPS
Color space : YUV
Chroma subsampling : 4:2:0
Bit depth : 8 bits
Scan type : Progressive
Bits/(Pixel*Frame) : 0.199
Stream size : 1.35 GiB (71%)
Title : Rip by mikos
Writing library : x264 core 159 r2991 1771b55
Encoding settings : cabac=1 / ref=11 / deblock=1:-2:-1 / analyse=0x3:0x133 / me=umh / subme=11 / psy=1 / psy_rd=1.00:0.08 / mixed_ref=1 / me_range=32 / chroma_me=1 / trellis=2 / 8x8dct=1 / cqm=0 / deadzone=21,11 / fast_pskip=0 / chroma_qp_offset=-3 / threads=13 / lookahead_threads=3 / sliced_threads=0 / nr=0 / decimate=0 / interlaced=0 / bluray_compat=0 / constrained_intra=0 / bframes=12 / b_pyramid=2 / b_adapt=2 / b_bias=0 / direct=3 / weightb=1 / open_gop=0 / weightp=2 / keyint=240 / keyint_min=23 / scenecut=40 / intra_refresh=0 / rc_lookahead=40 / rc=2pass / mbtree=0 / bitrate=2091 / ratetol=1.0 / qcomp=0.60 / qpmin=0 / qpmax=69 / qpstep=4 / cplxblur=20.0 / qblur=0.5 / vbv_maxrate=50000 / vbv_bufsize=65000 / nal_hrd=none / filler=0 / ip_ratio=1.40 / pb_ratio=1.30 / aq=2:1.00
Language : German
Default : Yes
Forced : No
Color range : Limited
Color primaries : BT.709
Transfer characteristics : BT.709
Matrix coefficients : BT.709

Audio #1
ID : 2
Format : AC-3
Format/Info : Audio Coding 3
Commercial name : Dolby Digital
Codec ID : A_AC3
Duration : 1 h 32 min
Bit rate mode : Constant
Bit rate : 384 kb/s
Channel(s) : 6 channels
Channel layout : L R C LFE Ls Rs
Sampling rate : 48.0 kHz
Frame rate : 31.250 FPS (1536 SPF)
Compression mode : Lossy
Stream size : 254 MiB (13%)
Title : iTunes
Language : Russian
Service kind : Complete Main
Default : Yes
Forced : No

Audio #2
ID : 3
Format : AC-3
Format/Info : Audio Coding 3
Commercial name : Dolby Digital
Codec ID : A_AC3
Duration : 1 h 32 min
Bit rate mode : Constant
Bit rate : 448 kb/s
Channel(s) : 6 channels
Channel layout : L R C LFE Ls Rs
Sampling rate : 48.0 kHz
Frame rate : 31.250 FPS (1536 SPF)
Compression mode : Lossy
Stream size : 296 MiB (15%)
Title : Original
Language : English
Service kind : Complete Main
Default : No
Forced : No

Text
ID : 4
Format : UTF-8
Codec ID : S_TEXT/UTF8
Codec ID/Info : UTF-8 Plain Text
Duration : 1 h 26 min
Bit rate : 43 b/s
Count of elements : 1009
Stream size : 27.9 KiB (0%)
Title : Full
Language : English
Default : Yes
Forced : No

Menu
00:00:00.000 : :Глава 01
00:05:36.836 : :Глава 02
00:10:39.389 : :Глава 03
00:17:13.406 : :Глава 04
00:25:36.869 : :Глава 05
00:32:54.306 : :Глава 06
00:37:29.122 : :Глава 07
00:42:33.926 : :Глава 08
00:46:46.220 : :Глава 09
00:54:46.450 : :Глава 10
01:00:03.308 : :Глава 11
01:07:50.066 : :Глава 12
01:10:31.060 : :Глава 13
01:15:10.798 : :Глава 14
01:24:25.560 : :Глава 15
01:28:49.699 : :Глава 16

Download
Для скачивания .torrent файлов необходима регистрация
Сайт не распространяет и не хранит электронные версии произведений, а лишь предоставляет доступ к создаваемому пользователями каталогу ссылок на торрент-файлы, которые содержат только списки хеш-сумм

Страница 1 из 1

Ответить на тему

   Похожие торренты   Торрент 




tracker_crontracker_cron