Регистрация ·  Логин: Пароль: Запомнить   · Забыли пароль?




Ответить на тему
Статистика раздачи
Размер: 1.46 ГБ | Зарегистрирован: 13 окт 2020, 17:22 | .torrent скачан: 0 раз(а), DHT: [ 12981 ] раз(а)
Сидеров: [ 499  | 0 байт/сек ]   Личеров: [ 8  | 0 байт/сек ]   DHT: [ 499 / 8 ]
Автор Сообщение

Модератор

С нами: 2 года 5 месяцев
Сообщения: 3401
Россия

Сообщение 13 окт 2020, 17:22 

[Цитировать]

Информация о фильме
Название: Зеркала: Инкарнация / У тебя за спиной
Оригинальное название: Behind You
Год выхода: 2020
Жанр: ужасы
Режиссер: Эндрю Мечэм, Мэттью Уэдон
В ролях: Эдди Миллер, Элизабет Биркнер, Джен Броберг, Филип Броди, Эйми-Линн Чедвик, Кори Абреу, Сиенна Карлсон, Скайлер М. Дэй, Стерлинг Эванс, Кэролайн Лэбрум

О фильме: После смерти матери две несовершеннолетние сестры Оливия и Клэр прибывают в дом родной тёти Бет, которая не очень-то рада гостям. 40 лет назад в этом доме нечто убило младшую сестру Бет, и теперь женщина строго-настрого запрещает девочкам спускаться в подвал. Но ночью голос зовёт младшую Клэр: указывает ей, где найти ключ от подвала, велит подойти к зеркалу и произнести заклинание, чтобы тёмная сущность могла пробраться в этот мир.



Выпущено: США / Parallellogram, Tremendum Pictures
Продолжительность: 01:26:15
Озвучивание: Дублированное | iTunes

Файл
Формат: AVI
Качество: WEB-DLRip | AMAZON Version
Видео: XviD, 2022 Kb/s, 720x304
Аудио: Russian: 48 kHz, AC3 Dolby Digital, 3/2 (L, C, R, l, r) + LFE ch, ~384 Kbps | iTunes
Субтитры: Нет
Скачать: Сэмпл

Релиз от: порошков

Формат: AVI
Формат/Информация: Audio Video Interleave
Размер файла: 1, 46 Гбайт
Продолжительность: 1 ч. 26 м.
Общий поток: 2 416 Кбит/сек
Название фильма: У тебя за спиной_2020_WEB-DLRip
Программа кодирования: VirtualDubMod 1.5.10.3 | www.virtualdub-fr.org || (build 2550/release)
Авторское право: порошков

Видео
Идентификатор: 0
Формат: MPEG-4 Visual
Профиль формата: Advanced [email protected]
Настройки формата: BVOP1 / Custom Matrix
Параметр BVOP формата: 1
Параметр QPel формата: Нет
Параметр GMC формата: Без точки перехода
Параметр матрицы формата: Выборочная
Идентификатор кодека: XVID
Идентификатор кодека/Подсказка: XviD
Продолжительность: 1 ч. 26 м.
Битрейт: 2 023 Кбит/сек
Ширина: 720 пикселей
Высота: 304 пикселя
Соотношение сторон: 2, 35:1
Частота кадров: 23, 976 (24000/1001) кадра/сек
Цветовое пространство: YUV
Субдискретизация насыщенности: 4:2:0
Битовая глубина: 8 бит
Тип развёртки: Прогрессивная
Метод сжатия: С потерями
Бит/(Пиксели*Кадры): 0.386
Размер потока: 1, 22 Гбайт (84%)
Библиотека кодирования: XviD 73

Аудио
Идентификатор: 1
Формат: AC-3
Формат/Информация: Audio Coding 3
Коммерческое название: Dolby Digital
Идентификатор кодека: 2000
Продолжительность: 1 ч. 26 м.
Вид битрейта: Постоянный
Битрейт: 384 Кбит/сек
Каналы: 6 каналов
Channel layout: L R C LFE Ls Rs
Частота: 48, 0 КГц
Частота кадров: 31, 250 кадров/сек (1536 SPF)
Метод сжатия: С потерями
Размер потока: 237 Мбайт (16%)
Выравнивание: Разделение по промежуткам
Продолжительность промежутка: 42 мс. (1, 00 видеокадр)
Время предзагрузки промежутка: 500 мс.
Service kind: Complete Main


Download
Для скачивания .torrent файлов необходима регистрация
Сайт не распространяет и не хранит электронные версии произведений, а лишь предоставляет доступ к создаваемому пользователями каталогу ссылок на торрент-файлы, которые содержат только списки хеш-сумм

Страница 1 из 1

Ответить на тему

   Похожие торренты   Торрент