Регистрация ·  Логин: Пароль: Запомнить   · Забыли пароль?




Ответить на тему
Статистика раздачи
Размер: 743.46 МБ | Зарегистрирован: 13 окт 2020, 17:21 | .torrent скачан: 0 раз(а), DHT: [ 49 ] раз(а)
Сидеров: [ 3  | 0 байт/сек ]   Личеров: [ 0  | 0 байт/сек ]   DHT: [ 3 / 0 ]
Автор Сообщение

Модератор

С нами: 2 года 4 месяца
Сообщения: 3361
Россия

Сообщение 13 окт 2020, 17:21 

[Цитировать]


Информация о фильме
Название: Видеорегистратор
Оригинальное название: Body Cam
Год выхода: 2020
Жанр: Ужасы, детектив, триллер
Режиссер: Малик Бут
В ролях: Мэри Джей Блайдж, Нат Вулф, Тео Росси, Аника Нони Роуз, Сильвия Грэйс Крим, Дэвид Заяс, Дэвид Варшовский, Филип Форна, Лара Грайс, Деметриус Гросс, Иэн Кассельберри, Ренелл Гиббз, Лорри Одом, Джефф Поуп , Джибраил Нантамбу, Алтонио Джексон, Лэнс И Николс, Наима Рамос-Чапман, Хан Сото, Мейсон Макки, Эмони Эллисон, Джиджи Эрнета, Мишель Эл Кларк, Брюс Винсент Логан, Майк Моро, Сью-Линн Ансари, Анил Баджадж

О фильме:
Стандартное и скучное патрулирование улиц для полицейских-напарников обернётся настоящим кошмаром после жестокого убийства коллеги. На месте преступления офицер полиции Рене Ломито-Смит находит обрывки записи видеорегистратора, на которые попала загадочная фигура, возникшая ниоткуда. Рене и её напарник Дэнни Холледж столкнутся с неведомой и необъяснимой силой, преследующей свои цели и готовой убивать без остановки.


Страна: США
Студия: Ace Entertainment, Paramount Players, Paramount Pictures
Продолжительность: 01:36:56
Перевод: Дублированный | iTunes

Файл
Формат: MKV
Качество: WEB-DLRip-AVC
Видео: MPEG-4 AVC, 776x330, 998 Кбит/с
Аудио: AAC-HE, 2 ch, 76 Кбит/с
Субтитры: Русские (Forced, Full), английские

Общее
Уникальный идентификатор : 183769978543662396941889271680795375044 (0x8A40CF7A05BB6A06F9EBBA656AB375C4)
Полное имя : D:MOVIESBody.Cam.2020.WEB-DLRip-AVC.ExKinoRay.mkv
Формат : Matroska
Версия формата : Version 4
Размер файла : 743 Мбайт
Продолжительность : 1 ч. 36 м.
Общий поток : 1 072 Кбит/сек
Дата кодирования : UTC 2020-09-05 16:02:39
Программа кодирования : mkvmerge v45.0.0 ('Heaven in Pennies') 64-bit
Библиотека кодирования : libebml v1.3.10 + libmatroska v1.5.2

Видео
Идентификатор : 1
Формат : AVC
Формат/Информация : Advanced Video Codec
Профиль формата : [email protected]
Настройки формата : CABAC / 12 Ref Frames
Параметр CABAC формата : Да
Параметр RefFrames формата : 12 кадров
Идентификатор кодека : V_MPEG4/ISO/AVC
Продолжительность : 1 ч. 36 м.
Битрейт : 998 Кбит/сек
Ширина : 776 пикселей
Высота : 330 пикселей
Соотношение сторон : 2,35:1
Режим частоты кадров : Постоянный
Частота кадров : 23,976 (24000/1001) кадра/сек
Цветовое пространство : YUV
Субдискретизация насыщенности : 4:2:0
Битовая глубина : 8 бит
Тип развёртки : Прогрессивная
Бит/(Пиксели*Кадры) : 0.163
Размер потока : 689 Мбайт (93%)
Библиотека кодирования : x264 core 160 r3000 33f9e14
Настройки программы : cabac=1 / ref=12 / deblock=1:-3:-3 / analyse=0x3:0x133 / me=umh / subme=10 / psy=1 / psy_rd=1.05:0.14 / mixed_ref=1 / me_range=32 / chroma_me=1 / trellis=2 / 8x8dct=1 / cqm=0 / deadzone=21,11 / fast_pskip=0 / chroma_qp_offset=-3 / threads=6 / lookahead_threads=1 / sliced_threads=0 / nr=0 / decimate=0 / interlaced=0 / bluray_compat=0 / constrained_intra=0 / bframes=11 / b_pyramid=2 / b_adapt=2 / b_bias=0 / direct=3 / weightb=1 / open_gop=0 / weightp=2 / keyint=240 / keyint_min=23 / scenecut=40 / intra_refresh=0 / rc=2pass / mbtree=0 / bitrate=998 / ratetol=1.0 / qcomp=0.60 / qpmin=0 / qpmax=69 / qpstep=4 / cplxblur=20.0 / qblur=0.5 / ip_ratio=1.40 / pb_ratio=1.30 / aq=3:1.00
Default : Да
Forced : Нет
Цветовой диапазон : Limited
Основные цвета : BT.709
Характеристики трансфера : BT.709
Коэффициенты матрицы : BT.709

Аудио
Идентификатор : 2
Формат : AAC LC SBR
Формат/Информация : Advanced Audio Codec Low Complexity with Spectral Band Replication
Коммерческое название : HE-AAC
Настройки формата : Explicit
Идентификатор кодека : A_AAC-2
Продолжительность : 1 ч. 36 м.
Битрейт : 76,0 Кбит/сек
Каналы : 2 канала
Channel layout : L R
Частота : 48,0 КГц
Частота кадров : 23,438 кадра/сек (2048 SPF)
Метод сжатия : С потерями
Задержка видео : 31 мс.
Размер потока : 52,5 Мбайт (7%)
Default : Да
Forced : Нет

Текст #1
Идентификатор : 3
Формат : UTF-8
Идентификатор кодека : S_TEXT/UTF8
Идентификатор кодека/Информация : UTF-8 Plain Text
Продолжительность : 1 ч. 32 м.
Битрейт : 0 бит/сек
Count of elements : 17
Размер потока : 666 байт (0%)
Заголовок : Forced
Язык : Russian
Default : Да
Forced : Да

Текст #2
Идентификатор : 4
Формат : UTF-8
Идентификатор кодека : S_TEXT/UTF8
Идентификатор кодека/Информация : UTF-8 Plain Text
Продолжительность : 1 ч. 36 м.
Битрейт : 58 бит/сек
Count of elements : 709
Размер потока : 41,5 Кбайт (0%)
Заголовок : Full-length
Язык : Russian
Default : Нет
Forced : Нет

Текст #3
Идентификатор : 5
Формат : UTF-8
Идентификатор кодека : S_TEXT/UTF8
Идентификатор кодека/Информация : UTF-8 Plain Text
Продолжительность : 1 ч. 29 м.
Битрейт : 40 бит/сек
Count of elements : 827
Размер потока : 26,7 Кбайт (0%)
Заголовок : Full-length
Язык : English
Default : Нет
Forced : Нет

Текст #4
Идентификатор : 6
Формат : UTF-8
Идентификатор кодека : S_TEXT/UTF8
Идентификатор кодека/Информация : UTF-8 Plain Text
Продолжительность : 1 ч. 29 м.
Битрейт : 44 бит/сек
Count of elements : 991
Размер потока : 29,5 Кбайт (0%)
Заголовок : SDH
Язык : English
Default : Нет
Forced : Нет

Меню
00:00:00.000 : en:1
00:07:54.057 : en:2
00:13:20.466 : en:3
00:21:47.473 : en:4
00:29:31.395 : en:5
00:36:30.147 : en:6
00:43:18.263 : en:7
00:50:36.826 : en:8
00:57:42.001 : en:9
01:04:23.360 : en:10
01:13:07.384 : en:11
01:20:50.221 : en:12
01:30:02.064 : en:13



Download
Для скачивания .torrent файлов необходима регистрация
Сайт не распространяет и не хранит электронные версии произведений, а лишь предоставляет доступ к создаваемому пользователями каталогу ссылок на торрент-файлы, которые содержат только списки хеш-сумм

Страница 1 из 1

Ответить на тему

   Похожие торренты   Торрент 




tracker_crontracker_cron