Регистрация ·  Логин: Пароль: Запомнить   · Забыли пароль?




Ответить на тему
Статистика раздачи
Размер: 1.2 ГБ | Зарегистрирован: 13 окт 2020, 17:21 | .torrent скачан: 0 раз(а), DHT: [ 0 ] раз(а)
Сидеров: [ 0  | 0 байт/сек ]   Личеров: [ 0  | 0 байт/сек ]   DHT: [ 0 / 0 ]
Автор Сообщение

Модератор

С нами: 2 года 4 месяца
Сообщения: 3361
Россия

Сообщение 13 окт 2020, 17:21 

[Цитировать]

Допросная номер один / 1 Interrogation

Информация о фильме:
Название: Допросная номер один
Оригинальное название: 1 Interrogation
Год выхода: 2020
Жанр: Детектив, криминал
Режиссер: Дэн Оуэнс
В ролях: Дэн Оуэнс, Чариди Вронски, Том Арнольд, Дэнни Тамбурро, Фрэнк Парилло, Шэрон Гаррисон, Эми Линдон, Далтон Е. Грэй, Рила Дж. Вронски, Кристина Хиндс
Описание: Пожилой детектив полиции Билл Дэниэлс, последние 40 лет отработавший в отделении для допросов, научился безошибочно распознавать ложь и правду, и отличать преступника от жертвы. Однажды к нему на прием попадает 18-летняя Крисси Дженкс с явными следами физического насилия, которая всеми силами пытается выгородить своего деспотичного отца Роберта, опускающегося до рукоприкладства за любую провинность. Вместе с окружным прокурором Энн Уокер главный герой хочет разговорить запуганную девушку, чтобы привлечь ее отца к ответственности.

Страна: США
Студия: 1 Media Productions
Продолжительность: 01:34:10
Перевод: Профессиональный (многоголосый, закадровый) - @[email protected]

Информация о файле:
Кодек: AVC
Формат: MKV
Качество: WEB-DLRip-AVC
Видео: MPEG-4 AVC, 1024x430 (2.40:1), 1 635 kb/s, 23.976 fps, 0.155
Аудио RU: AC3, 2 ch, 48 kHz, 192 kbps
Субтитры: Английские
Навигация по главам: Есть

Трейлер

General
Unique ID : 211237557391396530580592569783345398547 (0x9EEADFABD8E4B88D8EF8D37CDABEC313)
Complete name : D:uTorrentРипы_от_wolf1245_MediaBitДопросная номер один - 1 Interrogation (2019)_wolf1245 & MediaBit.mkv
Format : Matroska
Format version : Version 4
File size : 1.20 GiB
Duration : 1 h 34 min
Overall bit rate : 1 828 kb/s
Movie name : Допросная номер один / 1 Interrogation (2019)_wolf1245 & MediaBit
Encoded date : UTC 2020-09-05 10:17:11
Writing application : mkvmerge v49.0.0 ('Sick Of Losing Soulmates') 64-bit
Writing library : libebml v1.4.0 + libmatroska v1.6.1
Video
ID : 1
Format : AVC
Format/Info : Advanced Video Codec
Format profile : [email protected]
Format settings : CABAC / 10 Ref Frames
Format settings, CABAC : Yes
Format settings, Reference frames : 10 frames
Codec ID : V_MPEG4/ISO/AVC
Duration : 1 h 34 min
Bit rate : 1 635 kb/s
Width : 1 024 pixels
Height : 430 pixels
Display aspect ratio : 2.40:1
Frame rate mode : Constant
Frame rate : 23.976 (24000/1001) FPS
Color space : YUV
Chroma subsampling : 4:2:0
Bit depth : 8 bits
Scan type : Progressive
Bits/(Pixel*Frame) : 0.155
Stream size : 1.08 GiB (89%)
Title : wolf1245 & MediaBit
Writing library : x264 core 157 r2958 57baac4
Encoding settings : cabac=1 / ref=10 / deblock=1:-3:-3 / analyse=0x3:0x133 / me=umh / subme=11 / psy=1 / psy_rd=1.00:0.15 / mixed_ref=1 / me_range=48 / chroma_me=1 / trellis=2 / 8x8dct=1 / cqm=0 / deadzone=21,11 / fast_pskip=0 / chroma_qp_offset=-3 / threads=10 / lookahead_threads=2 / sliced_threads=0 / nr=0 / decimate=0 / interlaced=0 / bluray_compat=0 / constrained_intra=0 / bframes=10 / b_pyramid=2 / b_adapt=2 / b_bias=0 / direct=3 / weightb=1 / open_gop=0 / weightp=2 / keyint=240 / keyint_min=24 / scenecut=40 / intra_refresh=0 / rc_lookahead=60 / rc=crf / mbtree=0 / crf=18.5 / qcomp=0.60 / qpmin=0 / qpmax=69 / qpstep=4 / vbv_maxrate=50000 / vbv_bufsize=62500 / crf_max=30.0 / nal_hrd=none / filler=0 / ip_ratio=1.40 / pb_ratio=1.30 / aq=1:1.00
Language : English
Default : Yes
Forced : No
Color range : Limited
Color primaries : BT.709
Transfer characteristics : BT.709
Matrix coefficients : BT.709
Audio
ID : 2
Format : AC-3
Format/Info : Audio Coding 3
Commercial name : Dolby Digital
Codec ID : A_AC3
Duration : 1 h 34 min
Bit rate mode : Constant
Bit rate : 192 kb/s
Channel(s) : 2 channels
Channel layout : L R
Sampling rate : 48.0 kHz
Frame rate : 31.250 FPS (1536 SPF)
Compression mode : Lossy
Stream size : 129 MiB (10%)
Title : MVO [@[email protected]] MediaBit
Language : Russian
Service kind : Complete Main
Default : Yes
Forced : No
Text
ID : 3
Format : UTF-8
Codec ID : S_TEXT/UTF8
Codec ID/Info : UTF-8 Plain Text
Duration : 1 h 28 min
Bit rate : 71 b/s
Count of elements : 1588
Stream size : 46.7 KiB (0%)
Language : English
Default : No
Forced : No
Menu
00:00:00.000 : :1
00:13:51.664 : :2
00:25:42.206 : :3
00:39:54.557 : :4
00:53:09.184 : :5
01:07:35.550 : :6
01:18:24.532 : :7
01:31:15.052 : :8

Релиз от: &

Download
Для скачивания .torrent файлов необходима регистрация
Сайт не распространяет и не хранит электронные версии произведений, а лишь предоставляет доступ к создаваемому пользователями каталогу ссылок на торрент-файлы, которые содержат только списки хеш-сумм

Страница 1 из 1

Ответить на тему

   Похожие торренты   Торрент 




tracker_crontracker_cron