Регистрация ·  Логин: Пароль: Запомнить   · Забыли пароль?




Ответить на тему
Статистика раздачи
Размер: 1.35 ГБ | Зарегистрирован: 13 окт 2020, 17:21 | .torrent скачан: 0 раз(а), DHT: [ 0 ] раз(а)
Сидеров: [ 0  | 0 байт/сек ]   Личеров: [ 0  | 0 байт/сек ]   DHT: [ 0 / 0 ]
Автор Сообщение

Модератор

С нами: 2 года 4 месяца
Сообщения: 3361
Россия

Сообщение 13 окт 2020, 17:21 

[Цитировать]


Информация о фильме
Название: Допросная номер один
Оригинальное название: 1 Interrogation
Год выхода: 2020
Жанр: Детектив, криминал
Режиссер: Дэн Оуэнс
В ролях: Дэн Оуэнс, Чариди Вронски, Том Арнольд, Дэнни Тамбурро, Фрэнк Парилло, Шэрон Гаррисон, Эми Линдон, Далтон Е. Грэй, Рила Дж. Вронски, Кристина Хиндс

О фильме: Пожилой детектив полиции Билл Дэниэлс, последние 40 лет отработавший в отделении для допросов, научился безошибочно распознавать ложь и правду, и отличать преступника от жертвы. Однажды к нему на прием попадает 18-летняя Крисси Дженкс с явными следами физического насилия, которая всеми силами пытается выгородить своего деспотичного отца Роберта, опускающегося до рукоприкладства за любую провинность. Вместе с окружным прокурором Энн Уокер главный герой хочет разговорить запуганную девушку, чтобы привлечь ее отца к ответственности.



Страна: США
Студия: 1 Media Productions
Продолжительность: 01:34:10
Перевод: Любительский многоголосый | @[email protected]

Файл
Кодек: XviD
Качество: WEB-DLRip
Видео: 1844 Кбит/с, 720x304, 23.976 кадр/с
Звук: AC3, 48 Гц, 192 Кбит/сек, 2 ch (L + R) | MVO | @[email protected]


Общее
Полное имя : D:Торренты1.Interrogation.2020.1080p.WEB-DL.DD2.0.H264-FGTDoprosnaya.nomer.odin.2020.XviD.WEB-DLRip-MediaBit.avi
Формат : AVI
Формат/Информация : Audio Video Interleave
Профиль формата : OpenDML
Размер файла : 1,35 Гбайт
Продолжительность : 1 ч. 34 м.
Общий поток : 2 048 Кбит/сек
Название фильма : 1 Interrogation (2019)
Программа кодирования : Lavf58.20.100

Видео
Идентификатор : 0
Формат : MPEG-4 Visual
Профиль формата : Advanced [email protected]
Настройки формата : BVOP1 / Custom Matrix
Параметр BVOP формата : 1
Параметр QPel формата : Нет
Параметр GMC формата : Без точки перехода
Параметр матрицы формата : Выборочная
Идентификатор кодека : XVID
Идентификатор кодека/Подсказка : XviD
Продолжительность : 1 ч. 34 м.
Битрейт : 1 844 Кбит/сек
Ширина : 720 пикселей
Высота : 304 пикселя
Соотношение сторон : 2,40:1
Частота кадров : 23,976 (24000/1001) кадра/сек
Цветовое пространство : YUV
Субдискретизация насыщенности : 4:2:0
Битовая глубина : 8 бит
Тип развёртки : Прогрессивная
Метод сжатия : С потерями
Бит/(Пиксели*Кадры) : 0.351
Размер потока : 1,21 Гбайт (90%)
Заголовок : MediaBit
Библиотека кодирования : XviD 67

Аудио
Идентификатор : 1
Формат : AC-3
Формат/Информация : Audio Coding 3
Коммерческое название : Dolby Digital
Идентификатор кодека : 2000
Продолжительность : 1 ч. 34 м.
Вид битрейта : Постоянный
Битрейт : 192 Кбит/сек
Каналы : 2 канала
Channel layout : L R
Частота : 48,0 КГц
Частота кадров : 31,250 кадров/сек (1536 SPF)
Битовая глубина : 16 бит
Метод сжатия : С потерями
Размер потока : 129 Мбайт (9%)
Выравнивание : Соединение по промежуткам
Продолжительность промежутка : 32 мс. (0,77 видеокадр)
Заголовок : MVO [@[email protected]] MediaBit
Service kind : Complete Main


Релиз от:

Download
Для скачивания .torrent файлов необходима регистрация
Сайт не распространяет и не хранит электронные версии произведений, а лишь предоставляет доступ к создаваемому пользователями каталогу ссылок на торрент-файлы, которые содержат только списки хеш-сумм

Страница 1 из 1

Ответить на тему

   Похожие торренты   Торрент 




tracker_crontracker_cron