Регистрация ·  Логин: Пароль: Запомнить   · Забыли пароль?




Ответить на тему
Статистика раздачи
Размер: 3.32 ГБ | Зарегистрирован: 13 окт 2020, 17:21 | .torrent скачан: 0 раз(а), DHT: [ 0 ] раз(а)
Сидеров: [ 0  | 0 байт/сек ]   Личеров: [ 0  | 0 байт/сек ]   DHT: [ 0 / 0 ]
Автор Сообщение

Модератор

С нами: 2 года 4 месяца
Сообщения: 3361
Россия

Сообщение 13 окт 2020, 17:21 

[Цитировать]


Информация о фильме
Название: Допросная номер один
Оригинальное название: 1 Interrogation
Год выхода: 2020
Жанр: Детектив, криминал
Режиссер: Дэн Оуэнс
В ролях: Дэн Оуэнс, Чариди Вронски, Том Арнольд, Дэнни Тамбурро, Фрэнк Парилло, Шэрон Гаррисон, Эми Линдон, Далтон Е. Грэй, Рила Дж. Вронски, Кристина Хиндс

О фильме: Пожилой детектив полиции Билл Дэниэлс, последние 40 лет отработавший в отделении для допросов, научился безошибочно распознавать ложь и правду, и отличать преступника от жертвы. Однажды к нему на прием попадает 18-летняя Крисси Дженкс с явными следами физического насилия, которая всеми силами пытается выгородить своего деспотичного отца Роберта, опускающегося до рукоприкладства за любую провинность. Вместе с окружным прокурором Энн Уокер главный герой хочет разговорить запуганную девушку, чтобы привлечь ее отца к ответственности.



Страна: США
Студия: 1 Media Productions
Продолжительность: 01:34:10
Перевод: Любительский многоголосый | @[email protected]

Файл
Кодек: MPEG-4 AVC
Качество: WEB-DL 1080p
Видео: 4656 Кбит/с, 1920x808, 23.976 кадр/с
Звук:
Аудио #1: AC3, 48 Гц, 192 Кбит/сек, 2 ch (L + R) | MVO | @[email protected]
Аудио #2: AC3, 48 Гц, 192 Кбит/сек, 2 ch (L + R) | Английский
Субтитры: Английские


Общее
Уникальный идентификатор : 181395425170031100013984842598277681177 (0x88777CF4D75F38369249E76553979019)
Полное имя : D:Торренты1.Interrogation.2020.1080p.WEB-DL.DD2.0.H264-FGTDoprosnaya.nomer.odin.2020.x264.WEB-DL(1080p)-MediaBit.mkv
Формат : Matroska
Версия формата : Version 4
Размер файла : 3,32 Гбайт
Продолжительность : 1 ч. 34 м.
Общий поток : 5 043 Кбит/сек
Название фильма : Допросная номер один / 1 Interrogation (2019)
Дата кодирования : UTC 2020-09-04 16:18:35
Программа кодирования : mkvmerge v25.0.0 ('Prog Noir') 64-bit
Библиотека кодирования : libebml v1.3.6 + libmatroska v1.4.9

Видео
Идентификатор : 1
Формат : AVC
Формат/Информация : Advanced Video Codec
Профиль формата : [email protected]
Настройки формата : CABAC / 5 Ref Frames
Параметр CABAC формата : Да
Параметр RefFrames формата : 5 кадров
Идентификатор кодека : V_MPEG4/ISO/AVC
Продолжительность : 1 ч. 34 м.
Битрейт : 4 656 Кбит/сек
Ширина : 1 920 пикселей
Высота : 808 пикселей
Соотношение сторон : 2,40:1
Режим частоты кадров : Постоянный
Частота кадров : 23,976 кадра/сек
Цветовое пространство : YUV
Субдискретизация насыщенности : 4:2:0
Битовая глубина : 8 бит
Тип развёртки : Прогрессивная
Бит/(Пиксели*Кадры) : 0.125
Размер потока : 3,06 Гбайт (92%)
Заголовок : FGT
Язык : English
Default : Да
Forced : Нет
Цветовой диапазон : Limited
Основные цвета : BT.709
Характеристики трансфера : BT.709
Коэффициенты матрицы : BT.709

Аудио #1
Идентификатор : 2
Формат : AC-3
Формат/Информация : Audio Coding 3
Коммерческое название : Dolby Digital
Идентификатор кодека : A_AC3
Продолжительность : 1 ч. 34 м.
Вид битрейта : Постоянный
Битрейт : 192 Кбит/сек
Каналы : 2 канала
Channel layout : L R
Частота : 48,0 КГц
Частота кадров : 31,250 кадров/сек (1536 SPF)
Метод сжатия : С потерями
Размер потока : 129 Мбайт (4%)
Заголовок : MVO [@[email protected]] MediaBit
Язык : Russian
Service kind : Complete Main
Default : Да
Forced : Нет

Аудио #2
Идентификатор : 3
Формат : AC-3
Формат/Информация : Audio Coding 3
Коммерческое название : Dolby Digital
Идентификатор кодека : A_AC3
Продолжительность : 1 ч. 34 м.
Вид битрейта : Постоянный
Битрейт : 192 Кбит/сек
Каналы : 2 канала
Channel layout : L R
Частота : 48,0 КГц
Частота кадров : 31,250 кадров/сек (1536 SPF)
Метод сжатия : С потерями
Размер потока : 129 Мбайт (4%)
Заголовок : Original
Язык : English
Service kind : Complete Main
Default : Нет
Forced : Нет

Текст
Идентификатор : 4
Формат : UTF-8
Идентификатор кодека : S_TEXT/UTF8
Идентификатор кодека/Информация : UTF-8 Plain Text
Продолжительность : 1 ч. 28 м.
Битрейт : 71 бит/сек
Count of elements : 1588
Размер потока : 46,7 Кбайт (0%)
Язык : English
Default : Нет
Forced : Нет

Меню
00:00:00.000 : en:1
00:13:51.664 : en:2
00:25:42.206 : en:3
00:39:54.557 : en:4
00:53:09.184 : en:5
01:07:35.550 : en:6
01:18:24.532 : en:7
01:31:15.052 : en:8


Релиз от:

Download
Для скачивания .torrent файлов необходима регистрация
Сайт не распространяет и не хранит электронные версии произведений, а лишь предоставляет доступ к создаваемому пользователями каталогу ссылок на торрент-файлы, которые содержат только списки хеш-сумм

Страница 1 из 1

Ответить на тему

   Похожие торренты   Торрент 




tracker_crontracker_cron