Регистрация ·  Логин: Пароль: Запомнить   · Забыли пароль?




Ответить на тему
Статистика раздачи
Размер: 2.94 ГБ | Зарегистрирован: 13 окт 2020, 17:20 | .torrent скачан: 0 раз(а), DHT: [ 0 ] раз(а)
Сидеров: [ 0  | 0 байт/сек ]   Личеров: [ 0  | 0 байт/сек ]   DHT: [ 0 / 0 ]
Автор Сообщение

Модератор

С нами: 2 года 4 месяца
Сообщения: 3361
Россия

Сообщение 13 окт 2020, 17:20 

[Цитировать]


Информация о фильме
Название: Призраки замка Маргам
Оригинальное название: The Haunting of Margam Castle
Год выхода: 2020
Жанр: Ужасы, мистика
Режиссер: Эндрю Джонс
В ролях: Кэролайн Манро, Джэйн Мэрроу, Деррен Несбитт, Вернон Добчефф, Дерек Нельсон, Гэррик Хэйгон, Саймон Бэмфорд, Мадс Коудал, Джуди Мэтисон, Сара Ди

О фильме: Несбитт и Мерроу – опытные медиумы, которые решили помочь небольшой группе американских психологов, приехавшие на данную территорию, чтобы пристально исследовать таинственный старинный замок Маргам. Наивные глупцы не обращали внимания на различные страшные слухи и легенды. Среди жителей США оказался талантливый медик Билл Дарклайтер, который понимает, что новые приятели могут помочь распутать загадочное дело, связанное с университетом.



Страна: Великобритания
Студия: North Bank Entertainment
Продолжительность: 01:21:17
Перевод: Любительский многоголосый | @[email protected]

Файл
Кодек: MPEG-4 AVC
Качество: WEB-DL 1080p
Видео: 4603 Кбит/с, 1908x808, 23.976 кадр/с
Звук:
Аудио #1: AC3, 48 Гц, 192 Кбит/сек, 2 ch (L + R) | MVO | @[email protected]
Аудио #2: AC3, 48 Гц, 384 Кбит/сек, 6 ch (L C R, + L R, LFE) | Английский
Субтитры: Английские


Общее
Уникальный идентификатор : 175512660698037642710014006748603008174 (0x840A824656067BAFDD70B7D0AC88C4AE)
Полное имя : D:ТоррентыThe.Haunting.of.Margam.Castle.2020.1080p.WEB-DL.DD5.1.H264-FGTPrizraki.zamka.Morgan.2020.x264.WEB-DL(1080p)-MediaBit.mkv
Формат : Matroska
Версия формата : Version 4
Размер файла : 2,94 Гбайт
Продолжительность : 1 ч. 21 м.
Общий поток : 5 181 Кбит/сек
Название фильма : Призраки замка Маргам / The Haunting of Margam Castle (2020)
Дата кодирования : UTC 2020-09-03 20:08:41
Программа кодирования : mkvmerge v25.0.0 ('Prog Noir') 64-bit
Библиотека кодирования : libebml v1.3.6 + libmatroska v1.4.9

Видео
Идентификатор : 1
Формат : AVC
Формат/Информация : Advanced Video Codec
Профиль формата : [email protected]
Настройки формата : CABAC / 5 Ref Frames
Параметр CABAC формата : Да
Параметр RefFrames формата : 5 кадров
Идентификатор кодека : V_MPEG4/ISO/AVC
Продолжительность : 1 ч. 21 м.
Битрейт : 4 603 Кбит/сек
Ширина : 1 908 пикселей
Высота : 808 пикселей
Соотношение сторон : 2,35:1
Режим частоты кадров : Постоянный
Частота кадров : 23,976 (24000/1001) кадра/сек
Цветовое пространство : YUV
Субдискретизация насыщенности : 4:2:0
Битовая глубина : 8 бит
Тип развёртки : Прогрессивная
Бит/(Пиксели*Кадры) : 0.125
Размер потока : 2,61 Гбайт (89%)
Заголовок : FGT
Язык : English
Default : Да
Forced : Нет
Цветовой диапазон : Limited
Основные цвета : BT.709
Характеристики трансфера : BT.709
Коэффициенты матрицы : BT.709

Аудио #1
Идентификатор : 2
Формат : AC-3
Формат/Информация : Audio Coding 3
Коммерческое название : Dolby Digital
Идентификатор кодека : A_AC3
Продолжительность : 1 ч. 21 м.
Вид битрейта : Постоянный
Битрейт : 192 Кбит/сек
Каналы : 2 канала
Channel layout : L R
Частота : 48,0 КГц
Частота кадров : 31,250 кадров/сек (1536 SPF)
Метод сжатия : С потерями
Размер потока : 112 Мбайт (4%)
Заголовок : MVO [@[email protected]] MediaBit
Язык : Russian
Service kind : Complete Main
Default : Да
Forced : Нет

Аудио #2
Идентификатор : 3
Формат : AC-3
Формат/Информация : Audio Coding 3
Коммерческое название : Dolby Digital
Идентификатор кодека : A_AC3
Продолжительность : 1 ч. 21 м.
Вид битрейта : Постоянный
Битрейт : 384 Кбит/сек
Каналы : 6 каналов
Channel layout : L R C LFE Ls Rs
Частота : 48,0 КГц
Частота кадров : 31,250 кадров/сек (1536 SPF)
Метод сжатия : С потерями
Размер потока : 223 Мбайт (7%)
Заголовок : Original
Язык : English
Service kind : Complete Main
Default : Нет
Forced : Нет

Текст
Идентификатор : 4
Формат : UTF-8
Идентификатор кодека : S_TEXT/UTF8
Идентификатор кодека/Информация : UTF-8 Plain Text
Продолжительность : 1 ч. 6 м.
Битрейт : 45 бит/сек
Count of elements : 745
Размер потока : 22,2 Кбайт (0%)
Язык : English
Default : Нет
Forced : Нет

Меню
00:00:00.000 : en:1
00:04:39.000 : en:2
00:13:51.000 : en:3
00:18:35.000 : en:4
00:28:39.000 : en:5
00:41:28.000 : en:6
00:50:10.000 : en:7
00:59:43.000 : en:8
01:06:35.000 : en:9
01:14:44.000 : en:10


Релиз от:

Download
Для скачивания .torrent файлов необходима регистрация
Сайт не распространяет и не хранит электронные версии произведений, а лишь предоставляет доступ к создаваемому пользователями каталогу ссылок на торрент-файлы, которые содержат только списки хеш-сумм

Страница 1 из 1

Ответить на тему

   Похожие торренты   Торрент 




tracker_crontracker_cron