Регистрация ·  Логин: Пароль: Запомнить   · Забыли пароль?




Ответить на тему
Статистика раздачи
Размер: 1.77 ГБ | Зарегистрирован: 13 окт 2020, 17:20 | .torrent скачан: 0 раз(а), DHT: [ 33 ] раз(а)
Сидеров: [ 0  | 0 байт/сек ]   Личеров: [ 0  | 0 байт/сек ]   DHT: [ 0 / 0 ]
Автор Сообщение

Модератор

С нами: 2 года 4 месяца
Сообщения: 3361
Россия

Сообщение 13 окт 2020, 17:20 

[Цитировать]

Завещание Теслы / Final Frequency

Информация о фильме:
Название: Завещание Теслы
Оригинальное название: Final Frequency
Год выхода: 2020
Жанр: Фантастика, триллер
Режиссер: Тим Лоури
В ролях: Луис Ферриньо мл., Чарльз Шонесси, Кирби Блисс Блэнтон, Ричард Бёрджи, Люк Гилден, Никки СуХу, Марк Креник, Энн Мари Ховард, Джош Мюррэй, Бен Стоббер
Описание: Исследование необычной сейсмической активности в Лос-Анджелесе приводит аспирантку в законспирированную организацию, которая использует разработки Теслы, чтобы управлять не только землетрясениями, но и сознанием людей в своих целях. В поисках пропавшего профессора она пускается в рискованное, полное опасностей приключение.

Страна: США
Студия: 8168 Productions, Winter Star Productions
Продолжительность: 01:30:43
Перевод: Дублированный - iTunes

Информация о файле:
Кодек: AVC
Формат: MKV
Качество: WEB-DLRip-AVC
Видео: MPEG-4 AVC, 1024x576 (16:9), 2 415 kb/s, 24.000 FPS, 0.171
Аудио RU: AC3, 6 ch, 48 kHz, 384 kbps
Навигация по главам: Есть

Трейлер

General
Unique ID : 217983163812127520414009048017315385829 (0xA3FE07BED82A9E1B2E20E4C419B951E5)
Complete name : D:uTorrentРипы_от_wolf1245_MediaBitFinal.Frequency.WEBDLRip-AVC_wolf1245_MediaBit.iTunes.mkv
Format : Matroska
Format version : Version 4
File size : 1.77 GiB
Duration : 1 h 30 min
Overall bit rate : 2 787 kb/s
Movie name : Final.Frequency.WEBDLRip-AVC_wolf1245_MediaBit.iTunes
Encoded date : UTC 2020-09-03 06:47:31
Writing application : mkvmerge v49.0.0 ('Sick Of Losing Soulmates') 64-bit
Writing library : libebml v1.4.0 + libmatroska v1.6.1
Video
ID : 1
Format : AVC
Format/Info : Advanced Video Codec
Format profile : [email protected]
Format settings : CABAC / 11 Ref Frames
Format settings, CABAC : Yes
Format settings, Reference frames : 11 frames
Codec ID : V_MPEG4/ISO/AVC
Duration : 1 h 30 min
Bit rate : 2 415 kb/s
Width : 1 024 pixels
Height : 576 pixels
Display aspect ratio : 16:9
Frame rate mode : Constant
Frame rate : 24.000 FPS
Color space : YUV
Chroma subsampling : 4:2:0
Bit depth : 8 bits
Scan type : Progressive
Bits/(Pixel*Frame) : 0.171
Stream size : 1.52 GiB (86%)
Title : wolf1245 & MediaBit
Writing library : x264 core 157 r2958 57baac4
Encoding settings : cabac=1 / ref=11 / deblock=1:-3:-3 / analyse=0x3:0x133 / me=umh / subme=11 / psy=1 / psy_rd=1.00:0.15 / mixed_ref=1 / me_range=48 / chroma_me=1 / trellis=2 / 8x8dct=1 / cqm=0 / deadzone=21,11 / fast_pskip=0 / chroma_qp_offset=-3 / threads=10 / lookahead_threads=2 / sliced_threads=0 / nr=0 / decimate=0 / interlaced=0 / bluray_compat=0 / constrained_intra=0 / bframes=11 / b_pyramid=2 / b_adapt=2 / b_bias=4 / direct=3 / weightb=1 / open_gop=0 / weightp=2 / keyint=240 / keyint_min=24 / scenecut=40 / intra_refresh=0 / rc_lookahead=60 / rc=2pass / mbtree=0 / bitrate=2415 / ratetol=1.0 / qcomp=0.60 / qpmin=0 / qpmax=69 / qpstep=4 / cplxblur=20.0 / qblur=0.5 / vbv_maxrate=50000 / vbv_bufsize=62500 / nal_hrd=none / filler=0 / ip_ratio=1.40 / pb_ratio=1.30 / aq=1:1.00
Language : English
Default : Yes
Forced : No
Color range : Limited
Color primaries : BT.709
Transfer characteristics : BT.709
Matrix coefficients : BT.709
Audio
ID : 2
Format : AC-3
Format/Info : Audio Coding 3
Commercial name : Dolby Digital
Codec ID : A_AC3
Duration : 1 h 30 min
Bit rate mode : Constant
Bit rate : 384 kb/s
Channel(s) : 6 channels
Channel layout : L R C LFE Ls Rs
Sampling rate : 48.0 kHz
Frame rate : 31.250 FPS (1536 SPF)
Compression mode : Lossy
Stream size : 249 MiB (14%)
Title : DUB | iTunes
Language : Russian
Service kind : Complete Main
Default : Yes
Forced : No
Menu
00:00:00.000 : :Глава 1
00:09:38.958 : :Глава 2
00:17:38.499 : :Глава 3
00:26:05.914 : :Глава 4
00:34:19.039 : :Глава 5
00:40:09.122 : :Глава 6
00:45:12.997 : :Глава 7
00:50:17.788 : :Глава 8
00:56:19.204 : :Глава 9
01:02:23.745 : :Глава 10
01:06:39.328 : :Глава 11
01:11:56.578 : :Глава 12
01:16:51.785 : :Глава 13
01:21:49.992 : :Глава 14

Релиз от: &

Download
Для скачивания .torrent файлов необходима регистрация
Сайт не распространяет и не хранит электронные версии произведений, а лишь предоставляет доступ к создаваемому пользователями каталогу ссылок на торрент-файлы, которые содержат только списки хеш-сумм

Страница 1 из 1

Ответить на тему

   Похожие торренты   Торрент 




tracker_crontracker_cron