Регистрация ·  Логин: Пароль: Запомнить   · Забыли пароль?




Ответить на тему
Статистика раздачи
Размер: 3.53 ГБ | Зарегистрирован: 13 окт 2020, 17:20 | .torrent скачан: 0 раз(а), DHT: [ 0 ] раз(а)
Сидеров: [ 0  | 0 байт/сек ]   Личеров: [ 0  | 0 байт/сек ]   DHT: [ 0 / 0 ]
Автор Сообщение

Модератор

С нами: 2 года 4 месяца
Сообщения: 3361
Россия

Сообщение 13 окт 2020, 17:20 

[Цитировать]


Информация о фильме
Название: Завещание Теслы
Оригинальное название: Final Frequency
Дата выхода: 23 августа 2021
Цифровой релиз (в России): 02 сентября 2020
Жанр: фантастика, триллер
Режиссер: Тим Лоури
В ролях: Луис Ферриньо мл., Чарльз Шонесси, Кирби Блисс Блэнтон, Ричард Берджи, Люк Гилден, Никки СуХу, Марк Креник, Энн Мари Ховард, Джош Мюррэй

О фильме:
Исследование необычной сейсмической активности в Лос-Анджелесе приводит аспирантку в законспирированную организацию, которая использует разработки Теслы, чтобы управлять не только землетрясениями, но и сознанием людей в своих целях. В поисках пропавшего профессора она пускается в рискованное, полное опасностей приключение.


Страна: США
Продолжительность: 01:30:43
Перевод: Дублированный | iTunes

Файл
Формат: MKV
Кодек: MPEG-4 AVC
Качество: WEB-DL 1080p | iTunes version
Видео: 1920x1080, ~ 5 181 kb/s, 8 bits, 24.000 FPS
Аудио #1 (русский): AC-3, 384 kb/s, 6 ch (L R C LFE Ls Rs), 48.0 kHz
Субтитры: отсутствуют
Навигация по главам: есть



General
Unique ID : 248404681299507262522714327486565674514 (0xBAE1005C045E0939CD0E7912B6B36E12)
Complete name : [KORSARS]_Final.Frequency.WEBDL.1080p.iTunes.mkv
Format : Matroska
Format version : Version 4
File size : 3.53 GiB
Duration : 1 h 30 min
Overall bit rate : 5 567 kb/s
Movie name : [KORSARS]_Final.Frequency.WEBDL.1080p.iTunes
Encoded date : UTC 2020-09-02 18:09:23
Writing application : mkvmerge v49.0.0 ('Sick Of Losing Soulmates') 64-bit
Writing library : libebml v1.4.0 + libmatroska v1.6.1

Video
ID : 1
Format : AVC
Format/Info : Advanced Video Codec
Format profile : [email protected]
Format settings : CABAC / 4 Ref Frames
Format settings, CABAC : Yes
Format settings, Reference : 4 frames
Codec ID : V_MPEG4/ISO/AVC
Duration : 1 h 30 min
Bit rate : 5 181 kb/s
Width : 1 920 pixels
Height : 1 080 pixels
Display aspect ratio : 16:9
Frame rate mode : Constant
Frame rate : 24.000 FPS
Color space : YUV
Chroma subsampling : 4:2:0
Bit depth : 8 bits
Scan type : Progressive
Bits/(Pixel*Frame) : 0.104
Stream size : 3.28 GiB (93%)
Title : [KORSARS]_Final.Frequency.WEBDL.1080p.iTunes
Language : English
Default : Yes
Forced : No
Color range : Limited
Color primaries : BT.709
Transfer characteristics : BT.709
Matrix coefficients : BT.709

Audio
ID : 2
Format : AC-3
Format/Info : Audio Coding 3
Commercial name : Dolby Digital
Codec ID : A_AC3
Duration : 1 h 30 min
Bit rate mode : Constant
Bit rate : 384 kb/s
Channel(s) : 6 channels
Channel layout : L R C LFE Ls Rs
Sampling rate : 48.0 kHz
Frame rate : 31.250 FPS (1536 SPF)
Compression mode : Lossy
Delay relative to video : -42 ms
Stream size : 249 MiB (7%)
Title : [KORSARS]_Final.Frequency.WEBDL.1080p.iTunes
Language : Russian
Service kind : Complete Main
Default : Yes
Forced : No

Menu
00:00:00.000 : ru:Глава 1
00:09:38.958 : ru:Глава 2
00:17:38.499 : ru:Глава 3
00:26:05.914 : ru:Глава 4
00:34:19.039 : ru:Глава 5
00:40:09.122 : ru:Глава 6
00:45:12.997 : ru:Глава 7
00:50:17.788 : ru:Глава 8
00:56:19.204 : ru:Глава 9
01:02:23.745 : ru:Глава 10
01:06:39.328 : ru:Глава 11
01:11:56.578 : ru:Глава 12
01:16:51.785 : ru:Глава 13
01:21:49.992 : ru:Глава 14


Download
Для скачивания .torrent файлов необходима регистрация
Сайт не распространяет и не хранит электронные версии произведений, а лишь предоставляет доступ к создаваемому пользователями каталогу ссылок на торрент-файлы, которые содержат только списки хеш-сумм

Страница 1 из 1

Ответить на тему

   Похожие торренты   Торрент 




tracker_crontracker_cron